  0
SECTION
  2
HEADER
  9
$ACADVER
  1
AC1015
  9
$ACADMAINTVER
 70
    20
  9
$DWGCODEPAGE
  3
ANSI_932
  9
$INSBASE
 10
0.0
 20
0.0
 30
0.0
  9
$EXTMIN
 10
-89.76482943097755
 20
-68.46774544020309
 30
0.0
  9
$EXTMAX
 10
228.2351705690224
 20
93.86018013624164
 30
0.0
  9
$LIMMIN
 10
0.0
 20
0.0
  9
$LIMMAX
 10
420.0
 20
297.0
  9
$ORTHOMODE
 70
     1
  9
$REGENMODE
 70
     1
  9
$FILLMODE
 70
     1
  9
$QTEXTMODE
 70
     0
  9
$MIRRTEXT
 70
     1
  9
$LTSCALE
 40
1.0
  9
$ATTMODE
 70
     1
  9
$TEXTSIZE
 40
2.5
  9
$TRACEWID
 40
1.0
  9
$TEXTSTYLE
  7
Standard
  9
$CLAYER
  8
0
  9
$CELTYPE
  6
ByLayer
  9
$CECOLOR
 62
   256
  9
$CELTSCALE
 40
1.0
  9
$DISPSILH
 70
     0
  9
$DIMSCALE
 40
1.0
  9
$DIMASZ
 40
5.0
  9
$DIMEXO
 40
5.0
  9
$DIMDLI
 40
3.75
  9
$DIMRND
 40
0.0
  9
$DIMDLE
 40
0.0
  9
$DIMEXE
 40
1.25
  9
$DIMTP
 40
0.0
  9
$DIMTM
 40
0.0
  9
$DIMTXT
 40
7.0
  9
$DIMCEN
 40
2.5
  9
$DIMTSZ
 40
0.0
  9
$DIMTOL
 70
     0
  9
$DIMLIM
 70
     0
  9
$DIMTIH
 70
     0
  9
$DIMTOH
 70
     0
  9
$DIMSE1
 70
     0
  9
$DIMSE2
 70
     0
  9
$DIMTAD
 70
     1
  9
$DIMZIN
 70
     8
  9
$DIMBLK
  1

  9
$DIMASO
 70
     1
  9
$DIMSHO
 70
     1
  9
$DIMPOST
  1

  9
$DIMAPOST
  1

  9
$DIMALT
 70
     0
  9
$DIMALTD
 70
     3
  9
$DIMALTF
 40
0.03937007874016
  9
$DIMLFAC
 40
1.0
  9
$DIMTOFL
 70
     1
  9
$DIMTVP
 40
0.0
  9
$DIMTIX
 70
     0
  9
$DIMSOXD
 70
     0
  9
$DIMSAH
 70
     0
  9
$DIMBLK1
  1

  9
$DIMBLK2
  1

  9
$DIMSTYLE
  2
ISO-25
  9
$DIMCLRD
 70
     5
  9
$DIMCLRE
 70
     5
  9
$DIMCLRT
 70
     5
  9
$DIMTFAC
 40
1.0
  9
$DIMGAP
 40
3.0
  9
$DIMJUST
 70
     0
  9
$DIMSD1
 70
     0
  9
$DIMSD2
 70
     0
  9
$DIMTOLJ
 70
     0
  9
$DIMTZIN
 70
     8
  9
$DIMALTZ
 70
     0
  9
$DIMALTTZ
 70
     0
  9
$DIMUPT
 70
     0
  9
$DIMDEC
 70
     2
  9
$DIMTDEC
 70
     2
  9
$DIMALTU
 70
     2
  9
$DIMALTTD
 70
     3
  9
$DIMTXSTY
  7
Standard
  9
$DIMAUNIT
 70
     0
  9
$DIMADEC
 70
     0
  9
$DIMALTRND
 40
0.0
  9
$DIMAZIN
 70
     0
  9
$DIMDSEP
 70
    46
  9
$DIMATFIT
 70
     3
  9
$DIMFRAC
 70
     0
  9
$DIMLDRBLK
  1

  9
$DIMLUNIT
 70
     2
  9
$DIMLWD
 70
    -2
  9
$DIMLWE
 70
    -2
  9
$DIMTMOVE
 70
     0
  9
$LUNITS
 70
     2
  9
$LUPREC
 70
     4
  9
$SKETCHINC
 40
1.0
  9
$FILLETRAD
 40
17.9
  9
$AUNITS
 70
     0
  9
$AUPREC
 70
     0
  9
$MENU
  1
.
  9
$ELEVATION
 40
0.0
  9
$PELEVATION
 40
0.0
  9
$THICKNESS
 40
0.0
  9
$LIMCHECK
 70
     0
  9
$CHAMFERA
 40
10.0
  9
$CHAMFERB
 40
10.0
  9
$CHAMFERC
 40
20.0
  9
$CHAMFERD
 40
0.0
  9
$SKPOLY
 70
     0
  9
$TDCREATE
 40
2457229.701635197
  9
$TDUCREATE
 40
2457229.326635197
  9
$TDUPDATE
 40
2457276.642595984
  9
$TDUUPDATE
 40
2457276.267595984
  9
$TDINDWG
 40
0.2096325116
  9
$TDUSRTIMER
 40
0.2096307060
  9
$USRTIMER
 70
     1
  9
$ANGBASE
 50
0.0
  9
$ANGDIR
 70
     0
  9
$PDMODE
 70
     0
  9
$PDSIZE
 40
0.0
  9
$PLINEWID
 40
0.0
  9
$SPLFRAME
 70
     0
  9
$SPLINETYPE
 70
     6
  9
$SPLINESEGS
 70
     8
  9
$HANDSEED
  5
120B
  9
$SURFTAB1
 70
     6
  9
$SURFTAB2
 70
     6
  9
$SURFTYPE
 70
     6
  9
$SURFU
 70
     6
  9
$SURFV
 70
     6
  9
$UCSBASE
  2

  9
$UCSNAME
  2

  9
$UCSORG
 10
0.0
 20
0.0
 30
0.0
  9
$UCSXDIR
 10
1.0
 20
0.0
 30
0.0
  9
$UCSYDIR
 10
0.0
 20
1.0
 30
0.0
  9
$UCSORTHOREF
  2

  9
$UCSORTHOVIEW
 70
     0
  9
$UCSORGTOP
 10
0.0
 20
0.0
 30
0.0
  9
$UCSORGBOTTOM
 10
0.0
 20
0.0
 30
0.0
  9
$UCSORGLEFT
 10
0.0
 20
0.0
 30
0.0
  9
$UCSORGRIGHT
 10
0.0
 20
0.0
 30
0.0
  9
$UCSORGFRONT
 10
0.0
 20
0.0
 30
0.0
  9
$UCSORGBACK
 10
0.0
 20
0.0
 30
0.0
  9
$PUCSBASE
  2

  9
$PUCSNAME
  2

  9
$PUCSORG
 10
0.0
 20
0.0
 30
0.0
  9
$PUCSXDIR
 10
1.0
 20
0.0
 30
0.0
  9
$PUCSYDIR
 10
0.0
 20
1.0
 30
0.0
  9
$PUCSORTHOREF
  2

  9
$PUCSORTHOVIEW
 70
     0
  9
$PUCSORGTOP
 10
0.0
 20
0.0
 30
0.0
  9
$PUCSORGBOTTOM
 10
0.0
 20
0.0
 30
0.0
  9
$PUCSORGLEFT
 10
0.0
 20
0.0
 30
0.0
  9
$PUCSORGRIGHT
 10
0.0
 20
0.0
 30
0.0
  9
$PUCSORGFRONT
 10
0.0
 20
0.0
 30
0.0
  9
$PUCSORGBACK
 10
0.0
 20
0.0
 30
0.0
  9
$USERI1
 70
     0
  9
$USERI2
 70
     0
  9
$USERI3
 70
     0
  9
$USERI4
 70
     0
  9
$USERI5
 70
     0
  9
$USERR1
 40
0.0
  9
$USERR2
 40
0.0
  9
$USERR3
 40
0.0
  9
$USERR4
 40
0.0
  9
$USERR5
 40
0.0
  9
$WORLDVIEW
 70
     1
  9
$SHADEDGE
 70
     3
  9
$SHADEDIF
 70
    70
  9
$TILEMODE
 70
     1
  9
$MAXACTVP
 70
    64
  9
$PINSBASE
 10
0.0
 20
0.0
 30
0.0
  9
$PLIMCHECK
 70
     0
  9
$PEXTMIN
 10
1.000000000000000E+20
 20
1.000000000000000E+20
 30
1.000000000000000E+20
  9
$PEXTMAX
 10
-1.000000000000000E+20
 20
-1.000000000000000E+20
 30
-1.000000000000000E+20
  9
$PLIMMIN
 10
0.0
 20
0.0
  9
$PLIMMAX
 10
420.0
 20
297.0
  9
$UNITMODE
 70
     0
  9
$VISRETAIN
 70
     1
  9
$PLINEGEN
 70
     0
  9
$PSLTSCALE
 70
     1
  9
$TREEDEPTH
 70
  3020
  9
$CMLSTYLE
  2
Standard
  9
$CMLJUST
 70
     0
  9
$CMLSCALE
 40
20.0
  9
$PROXYGRAPHICS
 70
     1
  9
$MEASUREMENT
 70
     1
  9
$CELWEIGHT
370
    -1
  9
$ENDCAPS
280
     0
  9
$JOINSTYLE
280
     0
  9
$LWDISPLAY
290
     0
  9
$INSUNITS
 70
     4
  9
$HYPERLINKBASE
  1

  9
$STYLESHEET
  1
monochrome.ctb
  9
$XEDIT
290
     1
  9
$CEPSNTYPE
380
     0
  9
$PSTYLEMODE
290
     1
  9
$FINGERPRINTGUID
  2
{FB2BCB4F-F75E-4475-AED9-EBB68D6301DA}
  9
$VERSIONGUID
  2
{21663018-CF73-49AA-B8B6-0649E17F540B}
  9
$EXTNAMES
290
     1
  9
$PSVPSCALE
 40
0.0
  9
$OLESTARTUP
290
     0
  0
ENDSEC
  0
SECTION
  2
CLASSES
  0
CLASS
  1
ACDBDICTIONARYWDFLT
  2
AcDbDictionaryWithDefault
  3
ObjectDBX Classes
 90
        0
280
     0
281
     0
  0
CLASS
  1
ACDBPLACEHOLDER
  2
AcDbPlaceHolder
  3
ObjectDBX Classes
 90
        0
280
     0
281
     0
  0
CLASS
  1
LAYOUT
  2
AcDbLayout
  3
ObjectDBX Classes
 90
        0
280
     0
281
     0
  0
CLASS
  1
MATERIAL
  2
AcDbMaterial
  3
ObjectDBX Classes
 90
     1024
280
     0
281
     0
  0
CLASS
  1
VISUALSTYLE
  2
AcDbVisualStyle
  3
ObjectDBX Classes
 90
     4095
280
     0
281
     0
  0
CLASS
  1
TABLESTYLE
  2
AcDbTableStyle
  3
ObjectDBX Classes
 90
     4095
280
     0
281
     0
  0
CLASS
  1
DICTIONARYVAR
  2
AcDbDictionaryVar
  3
ObjectDBX Classes
 90
        0
280
     0
281
     0
  0
CLASS
  1
SORTENTSTABLE
  2
AcDbSortentsTable
  3
ObjectDBX Classes
 90
        0
280
     0
281
     0
  0
ENDSEC
  0
SECTION
  2
TABLES
  0
TABLE
  2
VPORT
  5
8
102
{ACAD_XDICTIONARY
360
207
102
}
330
0
100
AcDbSymbolTable
 70
     1
  0
VPORT
  5
1EA
330
8
100
AcDbSymbolTableRecord
100
AcDbViewportTableRecord
  2
*Active
 70
     0
 10
0.0
 20
0.0
 11
1.0
 21
1.0
 12
312.3533596191795
 22
13.23247028521069
 13
0.0
 23
0.0
 14
10.0
 24
10.0
 15
10.0
 25
10.0
 16
0.0
 26
0.0
 36
1.0
 17
0.0
 27
0.0
 37
0.0
 40
309.0323464385987
 41
1.848368522072936
 42
50.0
 43
0.0
 44
0.0
 50
0.0
 51
0.0
 71
     0
 72
   100
 73
     1
 74
     3
 75
     0
 76
     0
 77
     0
 78
     0
281
     0
 65
     1
110
0.0
120
0.0
130
0.0
111
1.0
121
0.0
131
0.0
112
0.0
122
1.0
132
0.0
 79
     0
146
0.0
  0
ENDTAB
  0
TABLE
  2
LTYPE
  5
5
330
0
100
AcDbSymbolTable
 70
     2
  0
LTYPE
  5
14
330
5
100
AcDbSymbolTableRecord
100
AcDbLinetypeTableRecord
  2
ByBlock
 70
     0
  3

 72
    65
 73
     0
 40
0.0
  0
LTYPE
  5
15
330
5
100
AcDbSymbolTableRecord
100
AcDbLinetypeTableRecord
  2
ByLayer
 70
     0
  3

 72
    65
 73
     0
 40
0.0
  0
LTYPE
  5
16
330
5
100
AcDbSymbolTableRecord
100
AcDbLinetypeTableRecord
  2
Continuous
 70
     0
  3
Solid line
 72
    65
 73
     0
 40
0.0
  0
LTYPE
  5
E70
330
5
100
AcDbSymbolTableRecord
100
AcDbLinetypeTableRecord
  2
CENTER
 70
     0
  3
Center ____ _ ____ _ ____ _ ____ _ ____ _ ____
 72
    65
 73
     4
 40
50.8
 49
31.75
 74
     0
 49
-6.349999999999999
 74
     0
 49
6.349999999999999
 74
     0
 49
-6.349999999999999
 74
     0
  0
ENDTAB
  0
TABLE
  2
LAYER
  5
2
330
0
100
AcDbSymbolTable
 70
     2
  0
LAYER
  5
10
330
2
100
AcDbSymbolTableRecord
100
AcDbLayerTableRecord
  2
0
 70
     0
 62
     7
  6
Continuous
370
    -3
390
F
  0
LAYER
  5
40
330
2
100
AcDbSymbolTableRecord
100
AcDbLayerTableRecord
  2
Defpoints
 70
     0
 62
     7
  6
Continuous
290
     0
370
    -3
390
F
  0
ENDTAB
  0
TABLE
  2
STYLE
  5
3
330
0
100
AcDbSymbolTable
 70
     2
  0
STYLE
  5
11
330
3
100
AcDbSymbolTableRecord
100
AcDbTextStyleTableRecord
  2
Standard
 70
     0
 40
0.0
 41
1.0
 50
0.0
 71
     0
 42
2.5
  3
txt.shx
  4
@extfont2.shx
  0
STYLE
  5
E6F
330
3
100
AcDbSymbolTableRecord
100
AcDbTextStyleTableRecord
  2

 70
     1
 40
0.0
 41
1.0
 50
0.0
 71
     0
 42
2.5
  3
ltypeshp.shx
  4

  0
ENDTAB
  0
TABLE
  2
VIEW
  5
6
330
0
100
AcDbSymbolTable
 70
     0
  0
ENDTAB
  0
TABLE
  2
UCS
  5
7
330
0
100
AcDbSymbolTable
 70
     0
  0
ENDTAB
  0
TABLE
  2
APPID
  5
9
330
0
100
AcDbSymbolTable
 70
     1
  0
APPID
  5
12
330
9
100
AcDbSymbolTableRecord
100
AcDbRegAppTableRecord
  2
ACAD
 70
     0
  0
ENDTAB
  0
TABLE
  2
DIMSTYLE
  5
A
330
0
100
AcDbSymbolTable
 70
     1
100
AcDbDimStyleTable
 71
     1
340
27
  0
DIMSTYLE
105
27
102
{ACAD_REACTORS
330
1135
330
1142
330
1161
330
1177
330
1184
330
1191
330
11A0
330
11AD
330
11BC
102
}
330
A
100
AcDbSymbolTableRecord
100
AcDbDimStyleTableRecord
  2
ISO-25
 70
     0
 41
5.0
 42
5.0
 43
3.75
 44
1.25
 73
     0
 74
     0
 77
     1
 78
     8
140
7.0
141
2.5
143
0.03937007874016
147
3.0
171
     3
172
     1
176
     5
177
     5
178
     5
271
     2
272
     2
274
     3
283
     0
284
     8
340
11
  0
ENDTAB
  0
TABLE
  2
BLOCK_RECORD
  5
1
330
0
100
AcDbSymbolTable
 70
    10
  0
BLOCK_RECORD
  5
1F
102
{ACAD_XDICTIONARY
360
226
102
}
330
1
100
AcDbSymbolTableRecord
100
AcDbBlockTableRecord
  2
*Model_Space
340
22
  0
BLOCK_RECORD
  5
1B
330
1
100
AcDbSymbolTableRecord
100
AcDbBlockTableRecord
  2
*Paper_Space
340
1E
  0
BLOCK_RECORD
  5
23
330
1
100
AcDbSymbolTableRecord
100
AcDbBlockTableRecord
  2
*Paper_Space0
340
26
  0
BLOCK_RECORD
  5
1136
330
1
100
AcDbSymbolTableRecord
100
AcDbBlockTableRecord
  2
*D1
340
0
  0
BLOCK_RECORD
  5
1143
330
1
100
AcDbSymbolTableRecord
100
AcDbBlockTableRecord
  2
*D2
340
0
  0
BLOCK_RECORD
  5
1162
330
1
100
AcDbSymbolTableRecord
100
AcDbBlockTableRecord
  2
*D3
340
0
  0
BLOCK_RECORD
  5
1178
330
1
100
AcDbSymbolTableRecord
100
AcDbBlockTableRecord
  2
*D4
340
0
  0
BLOCK_RECORD
  5
1185
330
1
100
AcDbSymbolTableRecord
100
AcDbBlockTableRecord
  2
*D5
340
0
  0
BLOCK_RECORD
  5
1192
330
1
100
AcDbSymbolTableRecord
100
AcDbBlockTableRecord
  2
*D6
340
0
  0
BLOCK_RECORD
  5
11A1
330
1
100
AcDbSymbolTableRecord
100
AcDbBlockTableRecord
  2
*D7
340
0
  0
BLOCK_RECORD
  5
11AE
330
1
100
AcDbSymbolTableRecord
100
AcDbBlockTableRecord
  2
*D8
340
0
  0
BLOCK_RECORD
  5
11BD
330
1
100
AcDbSymbolTableRecord
100
AcDbBlockTableRecord
  2
*D9
340
0
  0
ENDTAB
  0
ENDSEC
  0
SECTION
  2
BLOCKS
  0
BLOCK
  5
20
330
1F
100
AcDbEntity
  8
0
100
AcDbBlockBegin
  2
*Model_Space
 70
     0
 10
0.0
 20
0.0
 30
0.0
  3
*Model_Space
  1

  0
ENDBLK
  5
21
330
1F
100
AcDbEntity
  8
0
100
AcDbBlockEnd
  0
BLOCK
  5
1C
330
1B
100
AcDbEntity
 67
     1
  8
0
100
AcDbBlockBegin
  2
*Paper_Space
 70
     0
 10
0.0
 20
0.0
 30
0.0
  3
*Paper_Space
  1

  0
ENDBLK
  5
1D
330
1B
100
AcDbEntity
 67
     1
  8
0
100
AcDbBlockEnd
  0
BLOCK
  5
24
330
23
100
AcDbEntity
 67
     1
  8
0
100
AcDbBlockBegin
  2
*Paper_Space0
 70
     0
 10
0.0
 20
0.0
 30
0.0
  3
*Paper_Space0
  1

  0
ENDBLK
  5
25
330
23
100
AcDbEntity
 67
     1
  8
0
100
AcDbBlockEnd
  0
BLOCK
  5
1140
330
1136
100
AcDbEntity
  8
0
100
AcDbBlockBegin
  2
*D1
 70
     1
 10
0.0
 20
0.0
 30
0.0
  3
*D1
  1

  0
LINE
  5
1158
330
1136
100
AcDbEntity
  8
0
 62
     5
370
    -2
100
AcDbLine
 10
-16.99999999999999
 20
-1.800000000000001
 30
0.0
 11
-17.0
 21
-28.62933986307917
 31
0.0
  0
LINE
  5
1159
330
1136
100
AcDbEntity
  8
0
 62
     5
370
    -2
100
AcDbLine
 10
17.00000000000001
 20
-1.800000000000005
 30
0.0
 11
17.0
 21
-28.62933986307917
 31
0.0
  0
LINE
  5
115A
330
1136
100
AcDbEntity
  8
0
 62
     5
370
    -2
100
AcDbLine
 10
-11.99999999999999
 20
-27.37933986307917
 30
0.0
 11
12.0
 21
-27.37933986307917
 31
0.0
  0
SOLID
  5
115B
330
1136
100
AcDbEntity
  8
0
 62
     5
100
AcDbTrace
 10
-11.99999999999999
 20
-26.54600652974584
 30
0.0
 11
-11.99999999999999
 21
-28.2126731964125
 31
0.0
 12
-17.0
 22
-27.37933986307917
 32
0.0
 13
-17.0
 23
-27.37933986307917
 33
0.0
  0
SOLID
  5
115C
330
1136
100
AcDbEntity
  8
0
 62
     5
100
AcDbTrace
 10
12.0
 20
-26.54600652974584
 30
0.0
 11
12.0
 21
-28.2126731964125
 31
0.0
 12
17.0
 22
-27.37933986307917
 32
0.0
 13
17.0
 23
-27.37933986307917
 33
0.0
  0
MTEXT
  5
115D
330
1136
100
AcDbEntity
  8
0
 62
     5
100
AcDbMText
 10
0.000000000000004
 20
-20.87933986307917
 30
0.0
 40
7.0
 41
0.0
 71
     5
 72
     1
  1
34
 73
     1
 44
1.0
1001
ACAD
1000
MTEXTBEGIN
1070
    73
1070
     1
1070
    44
1040
1.0
1070
    74
1070
     0
1000
MTEXTEND
  0
POINT
  5
115E
330
1136
100
AcDbEntity
  8
Defpoints
 62
     0
100
AcDbPoint
 10
-16.99999999999999
 20
3.199999999999998
 30
0.0
  0
POINT
  5
115F
330
1136
100
AcDbEntity
  8
Defpoints
 62
     0
100
AcDbPoint
 10
17.00000000000001
 20
3.199999999999994
 30
0.0
  0
POINT
  5
1160
330
1136
100
AcDbEntity
  8
Defpoints
 62
     0
100
AcDbPoint
 10
17.0
 20
-27.37933986307917
 30
0.0
  0
ENDBLK
  5
1141
330
1136
100
AcDbEntity
  8
0
100
AcDbBlockEnd
  0
BLOCK
  5
114D
330
1143
100
AcDbEntity
  8
0
100
AcDbBlockBegin
  2
*D2
 70
     1
 10
0.0
 20
0.0
 30
0.0
  3
*D2
  1

  0
LINE
  5
114F
330
1143
100
AcDbEntity
  8
0
 62
     5
370
    -2
100
AcDbLine
 10
-13.79999999999999
 20
-5.000000000000001
 30
0.0
 11
-13.79999999999999
 21
-16.55565928032399
 31
0.0
  0
LINE
  5
1150
330
1143
100
AcDbEntity
  8
0
 62
     5
370
    -2
100
AcDbLine
 10
13.8
 20
-5.000000000000002
 30
0.0
 11
13.8
 21
-16.55565928032399
 31
0.0
  0
LINE
  5
1151
330
1143
100
AcDbEntity
  8
0
 62
     5
370
    -2
100
AcDbLine
 10
-8.799999999999995
 20
-15.30565928032399
 30
0.0
 11
8.799999999999998
 21
-15.30565928032399
 31
0.0
  0
SOLID
  5
1152
330
1143
100
AcDbEntity
  8
0
 62
     5
100
AcDbTrace
 10
-8.799999999999995
 20
-14.47232594699066
 30
0.0
 11
-8.799999999999995
 21
-16.13899261365732
 31
0.0
 12
-13.79999999999999
 22
-15.30565928032399
 32
0.0
 13
-13.79999999999999
 23
-15.30565928032399
 33
0.0
  0
SOLID
  5
1153
330
1143
100
AcDbEntity
  8
0
 62
     5
100
AcDbTrace
 10
8.799999999999998
 20
-14.47232594699066
 30
0.0
 11
8.799999999999998
 21
-16.13899261365732
 31
0.0
 12
13.8
 22
-15.30565928032399
 32
0.0
 13
13.8
 23
-15.30565928032399
 33
0.0
  0
MTEXT
  5
1154
330
1143
100
AcDbEntity
  8
0
 62
     5
100
AcDbMText
 10
0.0000000000000022
 20
-8.805659280323993
 30
0.0
 40
7.0
 41
0.0
 71
     5
 72
     1
  1
27.6
 73
     1
 44
1.0
1001
ACAD
1000
MTEXTBEGIN
1070
    73
1070
     1
1070
    44
1040
1.0
1070
    74
1070
     0
1000
MTEXTEND
  0
POINT
  5
1155
330
1143
100
AcDbEntity
  8
Defpoints
 62
     0
100
AcDbPoint
 10
-13.79999999999999
 20
-0.0000000000000018
 30
0.0
  0
POINT
  5
1156
330
1143
100
AcDbEntity
  8
Defpoints
 62
     0
100
AcDbPoint
 10
13.8
 20
-0.0000000000000027
 30
0.0
  0
POINT
  5
1157
330
1143
100
AcDbEntity
  8
Defpoints
 62
     0
100
AcDbPoint
 10
13.8
 20
-15.30565928032399
 30
0.0
  0
ENDBLK
  5
114E
330
1143
100
AcDbEntity
  8
0
100
AcDbBlockEnd
  0
BLOCK
  5
116C
330
1162
100
AcDbEntity
  8
0
100
AcDbBlockBegin
  2
*D3
 70
     1
 10
0.0
 20
0.0
 30
0.0
  3
*D3
  1

  0
LINE
  5
116E
330
1162
100
AcDbEntity
  8
0
 62
     5
370
    -2
100
AcDbLine
 10
39.89999999999999
 20
55.10000000000005
 30
0.0
 11
66.12811158864976
 21
55.10000000000005
 31
0.0
  0
LINE
  5
116F
330
1162
100
AcDbEntity
  8
0
 62
     5
370
    -2
100
AcDbLine
 10
39.90000000000002
 20
21.10000000000003
 30
0.0
 11
66.12811158864975
 21
21.10000000000002
 31
0.0
  0
LINE
  5
1170
330
1162
100
AcDbEntity
  8
0
 62
     5
370
    -2
100
AcDbLine
 10
64.87811158864976
 20
50.10000000000005
 30
0.0
 11
64.87811158864975
 21
26.10000000000002
 31
0.0
  0
SOLID
  5
1171
330
1162
100
AcDbEntity
  8
0
 62
     5
100
AcDbTrace
 10
64.04477825531643
 20
50.10000000000005
 30
0.0
 11
65.71144492198309
 21
50.10000000000005
 31
0.0
 12
64.87811158864976
 22
55.10000000000005
 32
0.0
 13
64.87811158864976
 23
55.10000000000005
 33
0.0
  0
SOLID
  5
1172
330
1162
100
AcDbEntity
  8
0
 62
     5
100
AcDbTrace
 10
64.04477825531642
 20
26.10000000000002
 30
0.0
 11
65.71144492198307
 21
26.10000000000002
 31
0.0
 12
64.87811158864975
 22
21.10000000000002
 32
0.0
 13
64.87811158864975
 23
21.10000000000002
 33
0.0
  0
MTEXT
  5
1173
330
1162
100
AcDbEntity
  8
0
 62
     5
100
AcDbMText
 10
58.37811158864974
 20
38.10000000000004
 30
0.0
 40
7.0
 41
0.0
 71
     5
 72
     1
  1
34
 11
0.0000000000000001
 21
1.0
 31
0.0
 73
     1
 44
1.0
1001
ACAD
1000
MTEXTBEGIN
1070
    73
1070
     1
1070
    44
1040
1.0
1070
    74
1070
     0
1000
MTEXTEND
  0
POINT
  5
1174
330
1162
100
AcDbEntity
  8
Defpoints
 62
     0
100
AcDbPoint
 10
34.89999999999999
 20
55.10000000000005
 30
0.0
  0
POINT
  5
1175
330
1162
100
AcDbEntity
  8
Defpoints
 62
     0
100
AcDbPoint
 10
34.90000000000002
 20
21.10000000000003
 30
0.0
  0
POINT
  5
1176
330
1162
100
AcDbEntity
  8
Defpoints
 62
     0
100
AcDbPoint
 10
64.87811158864975
 20
21.10000000000002
 30
0.0
  0
ENDBLK
  5
116D
330
1162
100
AcDbEntity
  8
0
100
AcDbBlockEnd
  0
BLOCK
  5
1182
330
1178
100
AcDbEntity
  8
0
100
AcDbBlockBegin
  2
*D4
 70
     1
 10
0.0
 20
0.0
 30
0.0
  3
*D4
  1

  0
LINE
  5
1179
330
1178
100
AcDbEntity
  8
0
 62
     5
370
    -2
100
AcDbLine
 10
43.10000000000001
 20
51.90000000000002
 30
0.0
 11
53.52301885683824
 21
51.90000000000001
 31
0.0
  0
LINE
  5
117A
330
1178
100
AcDbEntity
  8
0
 62
     5
370
    -2
100
AcDbLine
 10
43.10000000000002
 20
24.30000000000003
 30
0.0
 11
53.52301885683823
 21
24.30000000000003
 31
0.0
  0
LINE
  5
117B
330
1178
100
AcDbEntity
  8
0
 62
     5
370
    -2
100
AcDbLine
 10
52.27301885683823
 20
46.90000000000001
 30
0.0
 11
52.27301885683823
 21
29.30000000000003
 31
0.0
  0
SOLID
  5
117C
330
1178
100
AcDbEntity
  8
0
 62
     5
100
AcDbTrace
 10
51.43968552350489
 20
46.90000000000001
 30
0.0
 11
53.10635219017157
 21
46.90000000000001
 31
0.0
 12
52.27301885683824
 22
51.90000000000001
 32
0.0
 13
52.27301885683824
 23
51.90000000000001
 33
0.0
  0
SOLID
  5
117D
330
1178
100
AcDbEntity
  8
0
 62
     5
100
AcDbTrace
 10
51.43968552350489
 20
29.30000000000003
 30
0.0
 11
53.10635219017157
 21
29.30000000000003
 31
0.0
 12
52.27301885683823
 22
24.30000000000003
 32
0.0
 13
52.27301885683823
 23
24.30000000000003
 33
0.0
  0
MTEXT
  5
117E
330
1178
100
AcDbEntity
  8
0
 62
     5
100
AcDbMText
 10
45.77301885683822
 20
38.10000000000003
 30
0.0
 40
7.0
 41
0.0
 71
     5
 72
     1
  1
27.6
 11
0.0000000000000001
 21
1.0
 31
0.0
 73
     1
 44
1.0
1001
ACAD
1000
MTEXTBEGIN
1070
    73
1070
     1
1070
    44
1040
1.0
1070
    74
1070
     0
1000
MTEXTEND
  0
POINT
  5
117F
330
1178
100
AcDbEntity
  8
Defpoints
 62
     0
100
AcDbPoint
 10
38.10000000000001
 20
51.90000000000002
 30
0.0
  0
POINT
  5
1180
330
1178
100
AcDbEntity
  8
Defpoints
 62
     0
100
AcDbPoint
 10
38.10000000000002
 20
24.30000000000003
 30
0.0
  0
POINT
  5
1181
330
1178
100
AcDbEntity
  8
Defpoints
 62
     0
100
AcDbPoint
 10
52.27301885683823
 20
24.30000000000003
 30
0.0
  0
ENDBLK
  5
1183
330
1178
100
AcDbEntity
  8
0
100
AcDbBlockEnd
  0
BLOCK
  5
118F
330
1185
100
AcDbEntity
  8
0
100
AcDbBlockBegin
  2
*D5
 70
     1
 10
0.0
 20
0.0
 30
0.0
  3
*D5
  1

  0
LINE
  5
1186
330
1185
100
AcDbEntity
  8
0
 62
     5
370
    -2
100
AcDbLine
 10
-23.26187351114709
 20
38.10000000000001
 30
0.0
 11
-48.98749856206642
 21
38.10000000000002
 31
0.0
  0
LINE
  5
1187
330
1185
100
AcDbEntity
  8
0
 62
     5
370
    -2
100
AcDbLine
 10
-18.79999999999999
 20
-0.0000000000000004
 30
0.0
 11
-48.98749856206643
 21
0.0000000000000082
 31
0.0
  0
LINE
  5
1188
330
1185
100
AcDbEntity
  8
0
 62
     5
370
    -2
100
AcDbLine
 10
-47.73749856206642
 20
33.10000000000001
 30
0.0
 11
-47.73749856206643
 21
5.000000000000007
 31
0.0
  0
SOLID
  5
1189
330
1185
100
AcDbEntity
  8
0
 62
     5
100
AcDbTrace
 10
-48.57083189539976
 20
33.10000000000002
 30
0.0
 11
-46.90416522873309
 21
33.10000000000001
 31
0.0
 12
-47.73749856206642
 22
38.10000000000001
 32
0.0
 13
-47.73749856206642
 23
38.10000000000001
 33
0.0
  0
SOLID
  5
118A
330
1185
100
AcDbEntity
  8
0
 62
     5
100
AcDbTrace
 10
-48.57083189539977
 20
5.000000000000007
 30
0.0
 11
-46.90416522873309
 21
5.000000000000007
 31
0.0
 12
-47.73749856206643
 22
0.0000000000000078
 32
0.0
 13
-47.73749856206643
 23
0.0000000000000078
 33
0.0
  0
MTEXT
  5
118B
330
1185
100
AcDbEntity
  8
0
 62
     5
100
AcDbMText
 10
-54.23749856206644
 20
19.05
 30
0.0
 40
7.0
 41
0.0
 71
     5
 72
     1
  1
38.1
 11
0.0000000000000001
 21
1.0
 31
0.0
 73
     1
 44
1.0
1001
ACAD
1000
MTEXTBEGIN
1070
    73
1070
     1
1070
    44
1040
1.0
1070
    74
1070
     0
1000
MTEXTEND
  0
POINT
  5
118C
330
1185
100
AcDbEntity
  8
Defpoints
 62
     0
100
AcDbPoint
 10
-18.26187351114709
 20
38.10000000000001
 30
0.0
  0
POINT
  5
118D
330
1185
100
AcDbEntity
  8
Defpoints
 62
     0
100
AcDbPoint
 10
-13.79999999999999
 20
-0.0000000000000018
 30
0.0
  0
POINT
  5
118E
330
1185
100
AcDbEntity
  8
Defpoints
 62
     0
100
AcDbPoint
 10
-47.73749856206643
 20
0.0000000000000078
 30
0.0
  0
ENDBLK
  5
1190
330
1185
100
AcDbEntity
  8
0
100
AcDbBlockEnd
  0
BLOCK
  5
119E
330
1192
100
AcDbEntity
  8
0
100
AcDbBlockBegin
  2
*D6
 70
     1
 10
0.0
 20
0.0
 30
0.0
  3
*D6
  1

  0
LINE
  5
1193
330
1192
100
AcDbEntity
  8
0
 62
     5
370
    -2
100
AcDbLine
 10
-18.79999999999999
 20
-0.0000000000000004
 30
0.0
 11
-33.35260201610402
 21
0.0000000000000038
 31
0.0
  0
LINE
  5
1194
330
1192
100
AcDbEntity
  8
0
 62
     5
370
    -2
100
AcDbLine
 10
-21.99999999999999
 20
3.2
 30
0.0
 11
-33.35260201610402
 21
3.200000000000003
 31
0.0
  0
LINE
  5
1195
330
1192
100
AcDbEntity
  8
0
 62
     5
370
    -2
100
AcDbLine
 10
-32.10260201610402
 20
-4.999999999999996
 30
0.0
 11
-32.10260201610402
 21
-9.999999999999996
 31
0.0
  0
LINE
  5
1196
330
1192
100
AcDbEntity
  8
0
 62
     5
370
    -2
100
AcDbLine
 10
-32.10260201610402
 20
8.200000000000002
 30
0.0
 11
-32.10260201610401
 21
33.2
 31
0.0
  0
LINE
  5
1197
330
1192
100
AcDbEntity
  8
0
 62
     5
370
    -2
100
AcDbLine
 10
-32.10260201610402
 20
0.0000000000000034
 30
0.0
 11
-32.10260201610402
 21
3.200000000000002
 31
0.0
  0
SOLID
  5
1198
330
1192
100
AcDbEntity
  8
0
 62
     5
100
AcDbTrace
 10
-32.93593534943735
 20
-4.999999999999996
 30
0.0
 11
-31.26926868277069
 21
-4.999999999999996
 31
0.0
 12
-32.10260201610402
 22
0.0000000000000034
 32
0.0
 13
-32.10260201610402
 23
0.0000000000000034
 33
0.0
  0
SOLID
  5
1199
330
1192
100
AcDbEntity
  8
0
 62
     5
100
AcDbTrace
 10
-32.93593534943735
 20
8.200000000000002
 30
0.0
 11
-31.26926868277068
 21
8.200000000000002
 31
0.0
 12
-32.10260201610402
 22
3.200000000000002
 32
0.0
 13
-32.10260201610402
 23
3.200000000000002
 33
0.0
  0
MTEXT
  5
119A
330
1192
100
AcDbEntity
  8
0
 62
     5
100
AcDbMText
 10
-38.60260201610401
 20
23.2
 30
0.0
 40
7.0
 41
0.0
 71
     5
 72
     1
  1
3.2
 11
0.0000000000000001
 21
1.0
 31
0.0
 73
     1
 44
1.0
1001
ACAD
1000
MTEXTBEGIN
1070
    73
1070
     1
1070
    44
1040
1.0
1070
    74
1070
     0
1000
MTEXTEND
  0
POINT
  5
119B
330
1192
100
AcDbEntity
  8
Defpoints
 62
     0
100
AcDbPoint
 10
-13.79999999999999
 20
-0.0000000000000018
 30
0.0
  0
POINT
  5
119C
330
1192
100
AcDbEntity
  8
Defpoints
 62
     0
100
AcDbPoint
 10
-16.99999999999999
 20
3.199999999999998
 30
0.0
  0
POINT
  5
119D
330
1192
100
AcDbEntity
  8
Defpoints
 62
     0
100
AcDbPoint
 10
-32.10260201610402
 20
3.200000000000002
 30
0.0
  0
ENDBLK
  5
119F
330
1192
100
AcDbEntity
  8
0
100
AcDbBlockEnd
  0
BLOCK
  5
11AB
330
11A1
100
AcDbEntity
  8
0
100
AcDbBlockBegin
  2
*D7
 70
     1
 10
0.0
 20
0.0
 30
0.0
  3
*D7
  1

  0
LINE
  5
11A2
330
11A1
100
AcDbEntity
  8
0
 62
     5
370
    -2
100
AcDbLine
 10
38.10000000000001
 20
56.90000000000002
 30
0.0
 11
38.10000000000001
 21
85.11018013624164
 31
0.0
  0
LINE
  5
11A3
330
11A1
100
AcDbEntity
  8
0
 62
     5
370
    -2
100
AcDbLine
 10
0.0000000000000067
 20
69.41059949188946
 30
0.0
 11
0.0000000000000077
 21
85.11018013624164
 31
0.0
  0
LINE
  5
11A4
330
11A1
100
AcDbEntity
  8
0
 62
     5
370
    -2
100
AcDbLine
 10
33.10000000000001
 20
83.86018013624164
 30
0.0
 11
5.000000000000007
 21
83.86018013624164
 31
0.0
  0
SOLID
  5
11A5
330
11A1
100
AcDbEntity
  8
0
 62
     5
100
AcDbTrace
 10
33.10000000000001
 20
84.69351346957497
 30
0.0
 11
33.10000000000001
 21
83.0268468029083
 31
0.0
 12
38.10000000000001
 22
83.86018013624164
 32
0.0
 13
38.10000000000001
 23
83.86018013624164
 33
0.0
  0
SOLID
  5
11A6
330
11A1
100
AcDbEntity
  8
0
 62
     5
100
AcDbTrace
 10
5.000000000000007
 20
84.69351346957497
 30
0.0
 11
5.000000000000007
 21
83.0268468029083
 31
0.0
 12
0.0000000000000076
 22
83.86018013624164
 32
0.0
 13
0.0000000000000076
 23
83.86018013624164
 33
0.0
  0
MTEXT
  5
11A7
330
11A1
100
AcDbEntity
  8
0
 62
     5
100
AcDbMText
 10
19.05000000000001
 20
90.36018013624163
 30
0.0
 40
7.0
 41
0.0
 71
     5
 72
     1
  1
38.1
 73
     1
 44
1.0
1001
ACAD
1000
MTEXTBEGIN
1070
    73
1070
     1
1070
    44
1040
1.0
1070
    74
1070
     0
1000
MTEXTEND
  0
POINT
  5
11A8
330
11A1
100
AcDbEntity
  8
Defpoints
 62
     0
100
AcDbPoint
 10
38.10000000000001
 20
51.90000000000002
 30
0.0
  0
POINT
  5
11A9
330
11A1
100
AcDbEntity
  8
Defpoints
 62
     0
100
AcDbPoint
 10
0.0000000000000064
 20
64.41059949188946
 30
0.0
  0
POINT
  5
11AA
330
11A1
100
AcDbEntity
  8
Defpoints
 62
     0
100
AcDbPoint
 10
0.0000000000000076
 20
83.86018013624164
 30
0.0
  0
ENDBLK
  5
11AC
330
11A1
100
AcDbEntity
  8
0
100
AcDbBlockEnd
  0
BLOCK
  5
11BA
330
11AE
100
AcDbEntity
  8
0
100
AcDbBlockBegin
  2
*D8
 70
     1
 10
0.0
 20
0.0
 30
0.0
  3
*D8
  1

  0
LINE
  5
11AF
330
11AE
100
AcDbEntity
  8
0
 62
     5
370
    -2
100
AcDbLine
 10
38.10000000000001
 20
56.90000000000002
 30
0.0
 11
38.10000000000001
 21
72.44533696850862
 31
0.0
  0
LINE
  5
11B0
330
11AE
100
AcDbEntity
  8
0
 62
     5
370
    -2
100
AcDbLine
 10
34.90000000000001
 20
60.10000000000002
 30
0.0
 11
34.90000000000001
 21
72.44533696850862
 31
0.0
  0
LINE
  5
11B1
330
11AE
100
AcDbEntity
  8
0
 62
     5
370
    -2
100
AcDbLine
 10
43.10000000000001
 20
71.19533696850862
 30
0.0
 11
48.10000000000001
 21
71.19533696850862
 31
0.0
  0
LINE
  5
11B2
330
11AE
100
AcDbEntity
  8
0
 62
     5
370
    -2
100
AcDbLine
 10
29.90000000000001
 20
71.19533696850862
 30
0.0
 11
4.900000000000012
 21
71.19533696850862
 31
0.0
  0
LINE
  5
11B3
330
11AE
100
AcDbEntity
  8
0
 62
     5
370
    -2
100
AcDbLine
 10
38.10000000000001
 20
71.19533696850862
 30
0.0
 11
34.90000000000001
 21
71.19533696850862
 31
0.0
  0
SOLID
  5
11B4
330
11AE
100
AcDbEntity
  8
0
 62
     5
100
AcDbTrace
 10
43.10000000000001
 20
72.02867030184195
 30
0.0
 11
43.10000000000001
 21
70.36200363517529
 31
0.0
 12
38.10000000000001
 22
71.19533696850862
 32
0.0
 13
38.10000000000001
 23
71.19533696850862
 33
0.0
  0
SOLID
  5
11B5
330
11AE
100
AcDbEntity
  8
0
 62
     5
100
AcDbTrace
 10
29.90000000000001
 20
72.02867030184195
 30
0.0
 11
29.90000000000001
 21
70.36200363517529
 31
0.0
 12
34.90000000000001
 22
71.19533696850862
 32
0.0
 13
34.90000000000001
 23
71.19533696850862
 33
0.0
  0
MTEXT
  5
11B6
330
11AE
100
AcDbEntity
  8
0
 62
     5
100
AcDbMText
 10
14.90000000000001
 20
77.69533696850863
 30
0.0
 40
7.0
 41
0.0
 71
     5
 72
     1
  1
3.2
 73
     1
 44
1.0
1001
ACAD
1000
MTEXTBEGIN
1070
    73
1070
     1
1070
    44
1040
1.0
1070
    74
1070
     0
1000
MTEXTEND
  0
POINT
  5
11B7
330
11AE
100
AcDbEntity
  8
Defpoints
 62
     0
100
AcDbPoint
 10
38.10000000000001
 20
51.90000000000002
 30
0.0
  0
POINT
  5
11B8
330
11AE
100
AcDbEntity
  8
Defpoints
 62
     0
100
AcDbPoint
 10
34.90000000000001
 20
55.10000000000002
 30
0.0
  0
POINT
  5
11B9
330
11AE
100
AcDbEntity
  8
Defpoints
 62
     0
100
AcDbPoint
 10
34.90000000000001
 20
71.19533696850862
 30
0.0
  0
ENDBLK
  5
11BB
330
11AE
100
AcDbEntity
  8
0
100
AcDbBlockEnd
  0
BLOCK
  5
11C9
330
11BD
100
AcDbEntity
  8
0
100
AcDbBlockBegin
  2
*D9
 70
     1
 10
0.0
 20
0.0
 30
0.0
  3
*D9
  1

  0
LINE
  5
11BE
330
11BD
100
AcDbEntity
  8
0
 62
     5
370
    -2
100
AcDbLine
 10
0.0000000000000142
 20
71.7249601044912
 30
0.0
 11
0.0000000000000213
 21
83.95358866364444
 31
0.0
  0
LINE
  5
11BF
330
11BD
100
AcDbEntity
  8
0
 62
     5
370
    -2
100
AcDbLine
 10
-29.3901039603462
 20
38.10000000000001
 30
0.0
 11
-45.85358866364441
 21
38.10000000000002
 31
0.0
  0
ARC
  5
11C0
330
11BD
100
AcDbEntity
  8
0
 62
     5
370
    -2
100
AcDbCircle
 10
0.0000000000000142
 20
38.10000000000002
 30
0.0
 40
44.60358866364443
100
AcDbArc
 50
96.42614451732471
 51
173.5738554826752
  0
SOLID
  5
11C1
330
11BD
100
AcDbEntity
  8
0
 62
     5
100
AcDbTrace
 10
-5.038847762947966
 20
83.25536549015902
 30
0.0
 11
-4.945432260036575
 21
81.59131881966159
 31
0.0
 12
0.0000000000000213
 22
82.70358866364444
 32
0.0
 13
0.0000000000000213
 23
82.70358866364444
 33
0.0
  0
SOLID
  5
11C2
330
11BD
100
AcDbEntity
  8
0
 62
     5
100
AcDbTrace
 10
-43.49131881966155
 20
43.04543226003662
 30
0.0
 11
-45.15536549015899
 21
43.138847762948
 31
0.0
 12
-44.60358866364441
 22
38.10000000000002
 32
0.0
 13
-44.60358866364441
 23
38.10000000000002
 33
0.0
  0
MTEXT
  5
11C3
330
11BD
100
AcDbEntity
  8
0
 62
     5
100
AcDbMText
 10
-36.13569408703093
 20
74.23569408703096
 30
0.0
 40
7.0
 41
0.0
 71
     5
 72
     1
  1
90°
 11
0.7071067811865476
 21
0.7071067811865475
 31
0.0
 73
     1
 44
1.0
1001
ACAD
1000
MTEXTBEGIN
1070
    73
1070
     1
1070
    44
1040
1.0
1070
    74
1070
     0
1000
MTEXTEND
  0
POINT
  5
11C4
330
11BD
100
AcDbEntity
  8
Defpoints
 62
     0
100
AcDbPoint
 10
-22.30179433182219
 20
76.72784088266769
 30
0.0
  0
POINT
  5
11C5
330
11BD
100
AcDbEntity
  8
Defpoints
 62
     0
100
AcDbPoint
 10
-24.39010396034621
 20
38.10000000000001
 30
0.0
  0
POINT
  5
11C6
330
11BD
100
AcDbEntity
  8
Defpoints
 62
     0
100
AcDbPoint
 10
0.0000000000000036
 20
-30.6059706813142
 30
0.0
  0
POINT
  5
11C7
330
11BD
100
AcDbEntity
  8
Defpoints
 62
     0
100
AcDbPoint
 10
0.0000000000000142
 20
66.7249601044912
 30
0.0
  0
POINT
  5
11C8
330
11BD
100
AcDbEntity
  8
Defpoints
 62
     0
100
AcDbPoint
 10
67.01453936201272
 20
38.10000000000004
 30
0.0
  0
ENDBLK
  5
11CA
330
11BD
100
AcDbEntity
  8
0
100
AcDbBlockEnd
  0
ENDSEC
  0
SECTION
  2
ENTITIES
  0
TEXT
  5
6A
330
1F
100
AcDbEntity
  8
0
100
AcDbText
 10
-89.76482943097755
 20
-68.46774544020309
 30
0.0
 40
20.0
  1
90度 エルボ-ロング 25A
100
AcDbText
  0
LINE
  5
C9A
330
1F
100
AcDbEntity
  8
0
100
AcDbLine
 10
-13.79999999999999
 20
-0.0000000000000018
 30
0.0
 11
13.8
 21
-0.0000000000000027
 31
0.0
  0
LINE
  5
E0A
330
1F
100
AcDbEntity
  8
0
  6
CENTER
 62
     1
 48
0.2
100
AcDbLine
 10
0.0000000000000036
 20
-30.6059706813142
 30
0.0
 11
0.0000000000000065
 21
66.7249601044912
 31
0.0
  0
LINE
  5
E0D
330
1F
100
AcDbEntity
  8
0
100
AcDbLine
 10
38.10000000000002
 20
24.30000000000003
 30
0.0
 11
38.10000000000001
 21
51.90000000000003
 31
0.0
  0
LINE
  5
E0E
330
1F
100
AcDbEntity
  8
0
  6
CENTER
 62
     1
 48
0.2
100
AcDbLine
 10
-24.39010396034621
 20
38.10000000000001
 30
0.0
 11
67.01453936201272
 21
38.10000000000004
 31
0.0
  0
LINE
  5
E19
330
1F
100
AcDbEntity
  8
0
100
AcDbLine
 10
17.00000000000001
 20
3.199999999999996
 30
0.0
 11
13.8
 21
-0.0000000000000018
 31
0.0
  0
LINE
  5
E1A
330
1F
100
AcDbEntity
  8
0
100
AcDbLine
 10
-17.0
 20
3.199999999999995
 30
0.0
 11
-13.79999999999999
 21
-0.0000000000000018
 31
0.0
  0
LINE
  5
E1D
330
1F
100
AcDbEntity
  8
0
100
AcDbLine
 10
38.10000000000002
 20
51.90000000000001
 30
0.0
 11
34.90000000000001
 21
55.10000000000004
 31
0.0
  0
LINE
  5
E1E
330
1F
100
AcDbEntity
  8
0
100
AcDbLine
 10
38.10000000000002
 20
24.30000000000003
 30
0.0
 11
34.90000000000002
 21
21.10000000000003
 31
0.0
  0
LINE
  5
F5F
330
1F
100
AcDbEntity
  8
0
100
AcDbLine
 10
-17.0
 20
3.199999999999998
 30
0.0
 11
17.00000000000001
 21
3.199999999999997
 31
0.0
  0
LINE
  5
F60
330
1F
100
AcDbEntity
  8
0
100
AcDbLine
 10
34.90000000000002
 20
21.10000000000003
 30
0.0
 11
34.89999999999999
 21
55.10000000000004
 31
0.0
  0
LINE
  5
1110
330
1F
100
AcDbEntity
  8
0
100
AcDbLine
 10
17.00000000000001
 20
3.199999999999996
 30
0.0
 11
17.00000000000001
 21
3.200000000000034
 31
0.0
  0
LINE
  5
1111
330
1F
100
AcDbEntity
  8
0
100
AcDbLine
 10
34.90000000000002
 20
21.10000000000003
 30
0.0
 11
34.90000000000001
 21
21.10000000000003
 31
0.0
  0
ARC
  5
112E
330
1F
100
AcDbEntity
  8
0
100
AcDbCircle
 10
34.90000000000001
 20
3.200000000000034
 30
0.0
 40
17.9
100
AcDbArc
 50
90.0
 51
180.0
  0
ARC
  5
1131
330
1F
100
AcDbEntity
  8
0
  6
CENTER
 62
     1
 48
0.2
100
AcDbCircle
 10
34.90000000000001
 20
3.200000000000034
 30
0.0
 40
34.9
100
AcDbArc
 50
90.0
 51
180.0
  0
ARC
  5
1132
330
1F
100
AcDbEntity
  8
0
100
AcDbCircle
 10
34.90000000000001
 20
3.200000000000034
 30
0.0
 40
51.9
100
AcDbArc
 50
90.0
 51
180.0
  0
DIMENSION
  5
1135
330
1F
100
AcDbEntity
  8
0
100
AcDbDimension
  2
*D1
 10
17.0
 20
-27.37933986307917
 30
0.0
 11
0.000000000000004
 21
-20.87933986307917
 31
0.0
 70
    32
 71
     5
 42
34.0
  3
ISO-25
100
AcDbAlignedDimension
 13
-16.99999999999999
 23
3.199999999999998
 33
0.0
 14
17.00000000000001
 24
3.199999999999994
 34
0.0
100
AcDbRotatedDimension
  0
DIMENSION
  5
1142
330
1F
100
AcDbEntity
  8
0
100
AcDbDimension
  2
*D2
 10
13.8
 20
-15.30565928032399
 30
0.0
 11
0.0000000000000022
 21
-8.805659280323993
 31
0.0
 70
    32
 71
     5
 42
27.6
  3
ISO-25
100
AcDbAlignedDimension
 13
-13.79999999999999
 23
-0.0000000000000018
 33
0.0
 14
13.8
 24
-0.0000000000000027
 34
0.0
100
AcDbRotatedDimension
  0
DIMENSION
  5
1161
330
1F
100
AcDbEntity
  8
0
100
AcDbDimension
  2
*D3
 10
64.87811158864975
 20
21.10000000000002
 30
0.0
 11
58.37811158864974
 21
38.10000000000004
 31
0.0
 70
    32
 71
     5
 42
34.00000000000002
  3
ISO-25
100
AcDbAlignedDimension
 13
34.89999999999999
 23
55.10000000000005
 33
0.0
 14
34.90000000000002
 24
21.10000000000003
 34
0.0
 50
90.0
100
AcDbRotatedDimension
  0
DIMENSION
  5
1177
330
1F
100
AcDbEntity
  8
0
100
AcDbDimension
  2
*D4
 10
52.27301885683823
 20
24.30000000000003
 30
0.0
 11
45.77301885683822
 21
38.10000000000003
 31
0.0
 70
    32
 71
     5
 42
27.59999999999999
  3
ISO-25
100
AcDbAlignedDimension
 13
38.10000000000001
 23
51.90000000000002
 33
0.0
 14
38.10000000000002
 24
24.30000000000003
 34
0.0
 50
90.0
100
AcDbRotatedDimension
  0
DIMENSION
  5
1184
330
1F
100
AcDbEntity
  8
0
100
AcDbDimension
  2
*D5
 10
-47.73749856206643
 20
0.0000000000000078
 30
0.0
 11
-54.23749856206644
 21
19.05
 31
0.0
 70
    32
 71
     5
 42
38.10000000000001
  3
ISO-25
100
AcDbAlignedDimension
 13
-18.26187351114709
 23
38.10000000000001
 33
0.0
 14
-13.79999999999999
 24
-0.0000000000000018
 34
0.0
 50
90.0
100
AcDbRotatedDimension
  0
DIMENSION
  5
1191
330
1F
100
AcDbEntity
  8
0
100
AcDbDimension
  2
*D6
 10
-32.10260201610402
 20
3.200000000000002
 30
0.0
 11
-38.60260201610401
 21
23.2
 31
0.0
 70
    32
 71
     5
 42
3.199999999999999
  3
ISO-25
100
AcDbAlignedDimension
 13
-13.79999999999999
 23
-0.0000000000000018
 33
0.0
 14
-16.99999999999999
 24
3.199999999999998
 34
0.0
 50
90.0
100
AcDbRotatedDimension
  0
DIMENSION
  5
11A0
330
1F
100
AcDbEntity
  8
0
100
AcDbDimension
  2
*D7
 10
0.0000000000000076
 20
83.86018013624164
 30
0.0
 11
19.05000000000001
 21
90.36018013624163
 31
0.0
 70
    32
 71
     5
 42
38.1
  3
ISO-25
100
AcDbAlignedDimension
 13
38.10000000000001
 23
51.90000000000002
 33
0.0
 14
0.0000000000000064
 24
64.41059949188946
 34
0.0
100
AcDbRotatedDimension
  0
DIMENSION
  5
11AD
330
1F
100
AcDbEntity
  8
0
100
AcDbDimension
  2
*D8
 10
34.90000000000001
 20
71.19533696850862
 30
0.0
 11
14.90000000000001
 21
77.69533696850863
 31
0.0
 70
    32
 71
     5
 42
3.199999999999995
  3
ISO-25
100
AcDbAlignedDimension
 13
38.10000000000001
 23
51.90000000000002
 33
0.0
 14
34.90000000000001
 24
55.10000000000002
 34
0.0
100
AcDbRotatedDimension
  0
DIMENSION
  5
11BC
330
1F
100
AcDbEntity
  8
0
100
AcDbDimension
  2
*D9
 10
67.01453936201272
 20
38.10000000000004
 30
0.0
 11
-36.13569408703094
 21
74.23569408703096
 31
0.0
 70
    34
 71
     5
 42
1.570796326794897
  3
ISO-25
100
AcDb2LineAngularDimension
 13
0.0000000000000036
 23
-30.6059706813142
 33
0.0
 14
0.0000000000000065
 24
66.7249601044912
 34
0.0
 15
-24.39010396034621
 25
38.10000000000001
 35
0.0
 16
-22.30179433182219
 26
76.72784088266769
 36
0.0
  0
ENDSEC
  0
SECTION
  2
OBJECTS
  0
DICTIONARY
  5
C
330
0
100
AcDbDictionary
281
     1
  3
ACAD_COLOR
350
201
  3
ACAD_GROUP
350
D
  3
ACAD_LAYOUT
350
1A
  3
ACAD_MATERIAL
350
1EC
  3
ACAD_MLINESTYLE
350
17
  3
ACAD_PLOTSETTINGS
350
19
  3
ACAD_PLOTSTYLENAME
350
E
  3
ACAD_TABLESTYLE
350
202
  3
ACAD_VISUALSTYLE
350
1F0
  3
AcDbVariableDictionary
350
21D
  3
DWGPROPS
350
11FC
  0
DICTIONARY
  5
207
330
8
100
AcDbDictionary
280
     1
281
     1
  0
DICTIONARY
  5
226
330
1F
100
AcDbDictionary
280
     1
281
     1
  3
ACAD_SORTENTS
360
227
  0
DICTIONARY
  5
201
102
{ACAD_REACTORS
330
C
102
}
330
C
100
AcDbDictionary
281
     1
  0
DICTIONARY
  5
D
102
{ACAD_REACTORS
330
C
102
}
330
C
100
AcDbDictionary
281
     1
  0
DICTIONARY
  5
1A
102
{ACAD_REACTORS
330
C
102
}
330
C
100
AcDbDictionary
281
     1
  3
Model
350
22
  3
ﾚｲｱｳﾄ1
350
1E
  3
ﾚｲｱｳﾄ2
350
26
  0
DICTIONARY
  5
1EC
102
{ACAD_REACTORS
330
C
102
}
330
C
100
AcDbDictionary
281
     1
  3
ByBlock
350
1EE
  3
ByLayer
350
1ED
  3
Global
350
1EF
  0
DICTIONARY
  5
17
102
{ACAD_REACTORS
330
C
102
}
330
C
100
AcDbDictionary
281
     1
  3
Standard
350
18
  0
DICTIONARY
  5
19
102
{ACAD_REACTORS
330
C
102
}
330
C
100
AcDbDictionary
281
     1
  0
ACDBDICTIONARYWDFLT
  5
E
102
{ACAD_REACTORS
330
C
102
}
330
C
100
AcDbDictionary
281
     1
  3
Normal
350
F
100
AcDbDictionaryWithDefault
340
F
  0
DICTIONARY
  5
202
102
{ACAD_REACTORS
330
C
102
}
330
C
100
AcDbDictionary
281
     1
  3
Standard
350
203
  0
DICTIONARY
  5
1F0
102
{ACAD_REACTORS
330
C
102
}
330
C
100
AcDbDictionary
281
     1
  3
2dWireframe
350
1F6
  3
3D Hidden
350
1F8
  3
3dWireframe
350
1F7
  3
Basic
350
1F5
  3
Brighten
350
1FC
  3
ColorChange
350
200
  3
Conceptual
350
1F9
  3
Dim
350
1FB
  3
Facepattern
350
1FF
  3
Flat
350
1F1
  3
FlatWithEdges
350
1F2
  3
Gouraud
350
1F3
  3
GouraudWithEdges
350
1F4
  3
Linepattern
350
1FE
  3
Realistic
350
1FA
  3
Thicken
350
1FD
  0
DICTIONARY
  5
21D
102
{ACAD_REACTORS
330
C
102
}
330
C
100
AcDbDictionary
281
     1
  3
CTABLESTYLE
350
21E
  3
DIMASSOC
350
221
  3
INDEXCTL
350
220
  3
SORTENTS
350
21F
  0
XRECORD
  5
11FC
102
{ACAD_REACTORS
330
C
102
}
330
C
100
AcDbXrecord
280
     1
  1
DWGPROPS COOKIE
  2

  3

  4

  6

  7

  8
K-takayama
  9

300
=
301
=
302
=
303
=
304
=
305
=
306
=
307
=
308
=
309
=
 40
0.2096324768518519
 41
2457229.701635197
 42
2457276.642595984
  1

 90
        0
  0
SORTENTSTABLE
  5
227
102
{ACAD_REACTORS
330
226
102
}
330
226
100
AcDbSortentsTable
330
1F
331
F60
  5
F5B
331
C9A
  5
DFD
331
1111
  5
1111
331
1132
  5
1130
331
E0D
  5
F59
331
E1D
  5
110E
331
112E
  5
112E
331
E19
  5
F83
331
F5F
  5
E7B
331
6A
  5
DFB
331
E0E
  5
F81
331
1110
  5
1110
331
1131
  5
112F
331
E1E
  5
110F
331
E0A
  5
F50
331
E1A
  5
F84
  0
LAYOUT
  5
22
102
{ACAD_XDICTIONARY
360
11FF
102
}
102
{ACAD_REACTORS
330
1A
102
}
330
1A
100
AcDbPlotSettings
  1

  2
Brother MFC-6490CN Printer
  4
A4
  6

 40
3.757083177566528
 41
3.757076978683471
 42
3.841751098632812
 43
3.757080078125
 44
209.9733276367187
 45
296.9259948730469
 46
0.0
 47
0.0
 48
-58.88033042056213
 49
-57.16587690686214
140
139.865017879488
141
149.7259694196451
142
1.0
143
1.022321750587118
 70
 11952
 72
     1
 73
     1
 74
     4
  7
monochrome.ctb
 75
     0
147
0.9781656307573436
148
58.88033042056213
149
57.16587690686214
100
AcDbLayout
  1
Model
 70
     1
 71
     0
 10
0.0
 20
0.0
 11
12.0
 21
9.0
 12
0.0
 22
0.0
 32
0.0
 14
0.0
 24
0.0
 34
0.0
 15
0.0
 25
0.0
 35
0.0
146
0.0
 13
0.0
 23
0.0
 33
0.0
 16
1.0
 26
0.0
 36
0.0
 17
0.0
 27
1.0
 37
0.0
 76
     0
330
1F
331
1EA
  0
LAYOUT
  5
1E
102
{ACAD_XDICTIONARY
360
11FD
102
}
102
{ACAD_REACTORS
330
1A
102
}
330
1A
100
AcDbPlotSettings
  1

  2
Microsoft Office Document Image Writer
  4

  6

 40
0.0
 41
0.0
 42
0.0
 43
0.0
 44
0.0
 45
0.0
 46
0.0
 47
0.0
 48
0.0
 49
0.0
140
0.0
141
0.0
142
1.0
143
1.0
 70
   688
 72
     0
 73
     0
 74
     5
  7
monochrome.ctb
 75
    16
147
1.0
148
0.0
149
0.0
100
AcDbLayout
  1
ﾚｲｱｳﾄ1
 70
     1
 71
     1
 10
0.0
 20
0.0
 11
420.0
 21
297.0
 12
0.0
 22
0.0
 32
0.0
 14
1.000000000000000E+20
 24
1.000000000000000E+20
 34
1.000000000000000E+20
 15
-1.000000000000000E+20
 25
-1.000000000000000E+20
 35
-1.000000000000000E+20
146
0.0
 13
0.0
 23
0.0
 33
0.0
 16
1.0
 26
0.0
 36
0.0
 17
0.0
 27
1.0
 37
0.0
 76
     0
330
1B
  0
LAYOUT
  5
26
102
{ACAD_XDICTIONARY
360
1201
102
}
102
{ACAD_REACTORS
330
1A
102
}
330
1A
100
AcDbPlotSettings
  1

  2
Microsoft Office Document Image Writer
  4

  6

 40
0.0
 41
0.0
 42
0.0
 43
0.0
 44
0.0
 45
0.0
 46
0.0
 47
0.0
 48
0.0
 49
0.0
140
0.0
141
0.0
142
1.0
143
1.0
 70
   688
 72
     0
 73
     0
 74
     5
  7
monochrome.ctb
 75
    16
147
1.0
148
0.0
149
0.0
100
AcDbLayout
  1
ﾚｲｱｳﾄ2
 70
     1
 71
     2
 10
0.0
 20
0.0
 11
12.0
 21
9.0
 12
0.0
 22
0.0
 32
0.0
 14
0.0
 24
0.0
 34
0.0
 15
0.0
 25
0.0
 35
0.0
146
0.0
 13
0.0
 23
0.0
 33
0.0
 16
1.0
 26
0.0
 36
0.0
 17
0.0
 27
1.0
 37
0.0
 76
     0
330
23
  0
MATERIAL
  5
1EE
102
{ACAD_XDICTIONARY
360
1205
102
}
102
{ACAD_REACTORS
330
1EC
102
}
330
1EC
100
AcDbMaterial
  1
ByBlock
  0
MATERIAL
  5
1ED
102
{ACAD_XDICTIONARY
360
1203
102
}
102
{ACAD_REACTORS
330
1EC
102
}
330
1EC
100
AcDbMaterial
  1
ByLayer
  0
MATERIAL
  5
1EF
102
{ACAD_XDICTIONARY
360
1207
102
}
102
{ACAD_REACTORS
330
1EC
102
}
330
1EC
100
AcDbMaterial
  1
Global
  0
MLINESTYLE
  5
18
102
{ACAD_REACTORS
330
17
102
}
330
17
100
AcDbMlineStyle
  2
STANDARD
 70
     0
  3

 62
   256
 51
90.0
 52
90.0
 71
     2
 49
0.5
 62
   256
  6
BYLAYER
 49
-0.5
 62
   256
  6
BYLAYER
  0
ACDBPLACEHOLDER
  5
F
102
{ACAD_REACTORS
330
E
102
}
330
E
  0
TABLESTYLE
  5
203
102
{ACAD_XDICTIONARY
360
1209
102
}
102
{ACAD_REACTORS
330
202
102
}
330
202
100
AcDbTableStyle
  3
Standard
 70
     0
 71
     0
 40
1.5
 41
1.5
280
     0
281
     0
  7
Standard
140
4.5
170
     2
 62
     0
 63
     7
283
     0
274
    -2
284
     1
 64
     0
275
    -2
285
     1
 65
     0
276
    -2
286
     1
 66
     0
277
    -2
287
     1
 67
     0
278
    -2
288
     1
 68
     0
279
    -2
289
     1
 69
     0
  7
Standard
140
6.0
170
     5
 62
     0
 63
     7
283
     0
274
    -2
284
     1
 64
     0
275
    -2
285
     1
 65
     0
276
    -2
286
     1
 66
     0
277
    -2
287
     1
 67
     0
278
    -2
288
     1
 68
     0
279
    -2
289
     1
 69
     0
  7
Standard
140
4.5
170
     5
 62
     0
 63
     7
283
     0
274
    -2
284
     1
 64
     0
275
    -2
285
     1
 65
     0
276
    -2
286
     1
 66
     0
277
    -2
287
     1
 67
     0
278
    -2
288
     1
 68
     0
279
    -2
289
     1
 69
     0
  0
VISUALSTYLE
  5
1F6
102
{ACAD_REACTORS
330
1F0
102
}
330
1F0
100
AcDbVisualStyle
  2
2dWireframe
 70
     4
 71
     0
 72
     2
 73
     0
 90
        0
 40
-0.6
 41
-30.0
 62
     5
 63
     7
 74
     1
 91
        4
 64
     7
 65
   257
 75
     1
175
     1
 42
1.0
 92
        0
 66
   257
 43
1.0
 76
     1
 77
     6
 78
     2
 67
     7
 79
     5
170
     0
171
     0
290
     0
174
     0
 93
        1
 44
0.0
173
     0
291
     0
 45
0.0
1001
ACAD
1000
AcDbSavedByObjectVersion
1070
     0
  0
VISUALSTYLE
  5
1F8
102
{ACAD_REACTORS
330
1F0
102
}
330
1F0
100
AcDbVisualStyle
  2
3D Hidden
 70
     6
 71
     1
 72
     2
 73
     2
 90
        0
 40
-0.6
 41
-30.0
 62
     5
 63
     7
 74
     2
 91
        2
 64
     7
 65
   257
 75
     2
175
     1
 42
40.0
 92
        0
 66
   257
 43
1.0
 76
     1
 77
     6
 78
     2
 67
     7
 79
     3
170
     0
171
     0
290
     0
174
     0
 93
        1
 44
0.0
173
     0
291
     0
 45
0.0
1001
ACAD
1000
AcDbSavedByObjectVersion
1070
     0
  0
VISUALSTYLE
  5
1F7
102
{ACAD_REACTORS
330
1F0
102
}
330
1F0
100
AcDbVisualStyle
  2
3dWireframe
 70
     5
 71
     0
 72
     2
 73
     0
 90
        0
 40
-0.6
 41
-30.0
 62
     5
 63
     7
 74
     1
 91
        4
 64
     7
 65
   257
 75
     1
175
     1
 42
1.0
 92
        0
 66
   257
 43
1.0
 76
     1
 77
     6
 78
     2
 67
     7
 79
     5
170
     0
171
     0
290
     0
174
     0
 93
        1
 44
0.0
173
     0
291
     0
 45
0.0
1001
ACAD
1000
AcDbSavedByObjectVersion
1070
     0
  0
VISUALSTYLE
  5
1F5
102
{ACAD_REACTORS
330
1F0
102
}
330
1F0
100
AcDbVisualStyle
  2
Basic
 70
     7
 71
     1
 72
     0
 73
     1
 90
        0
 40
-0.6
 41
-30.0
 62
     5
 63
     7
 74
     0
 91
        4
 64
     7
 65
   257
 75
     1
175
     1
 42
1.0
 92
        8
 66
     7
 43
1.0
 76
     1
 77
     6
 78
     2
 67
     7
 79
     5
170
     0
171
     0
290
     0
174
     0
 93
        1
 44
0.0
173
     0
291
     1
 45
0.0
1001
ACAD
1000
AcDbSavedByObjectVersion
1070
     0
  0
VISUALSTYLE
  5
1FC
102
{ACAD_REACTORS
330
1F0
102
}
330
1F0
100
AcDbVisualStyle
  2
Brighten
 70
    12
 71
     2
 72
     2
 73
     0
 90
        0
 40
-0.6
 41
-30.0
 62
     5
 63
     7
 74
     1
 91
        4
 64
     7
 65
   257
 75
     1
175
     1
 42
1.0
 92
        8
 66
     7
 43
1.0
 76
     1
 77
     6
 78
     2
 67
     7
 79
     5
170
     0
171
     0
290
     0
174
     0
 93
        1
 44
50.0
173
     0
291
     1
 45
0.0
1001
ACAD
1000
AcDbSavedByObjectVersion
1070
     0
  0
VISUALSTYLE
  5
200
102
{ACAD_REACTORS
330
1F0
102
}
330
1F0
100
AcDbVisualStyle
  2
ColorChange
 70
    16
 71
     2
 72
     2
 73
     3
 90
        0
 40
-0.6
 41
-30.0
 62
     5
 63
     8
 74
     1
 91
        4
 64
     7
 65
   257
 75
     1
175
     1
 42
1.0
 92
        8
 66
     8
 43
1.0
 76
     1
 77
     6
 78
     2
 67
     7
 79
     5
170
     0
171
     0
290
     0
174
     0
 93
        1
 44
0.0
173
     0
291
     1
 45
0.0
1001
ACAD
1000
AcDbSavedByObjectVersion
1070
     0
  0
VISUALSTYLE
  5
1F9
102
{ACAD_REACTORS
330
1F0
102
}
330
1F0
100
AcDbVisualStyle
  2
Conceptual
 70
     9
 71
     3
 72
     2
 73
     0
 90
        0
 40
-0.6
 41
-30.0
 62
     5
 63
     7
 74
     2
 91
        2
 64
     7
 65
   257
 75
     1
175
     1
 42
40.0
 92
        8
 66
     7
 43
1.0
 76
     1
 77
     6
 78
     2
 67
     7
 79
     3
170
     0
171
     0
290
     0
174
     0
 93
        1
 44
0.0
173
     0
291
     0
 45
0.0
1001
ACAD
1000
AcDbSavedByObjectVersion
1070
     0
  0
VISUALSTYLE
  5
1FB
102
{ACAD_REACTORS
330
1F0
102
}
330
1F0
100
AcDbVisualStyle
  2
Dim
 70
    11
 71
     2
 72
     2
 73
     0
 90
        0
 40
-0.6
 41
-30.0
 62
     5
 63
     7
 74
     1
 91
        4
 64
     7
 65
   257
 75
     1
175
     1
 42
1.0
 92
        8
 66
     7
 43
1.0
 76
     1
 77
     6
 78
     2
 67
     7
 79
     5
170
     0
171
     0
290
     0
174
     0
 93
        1
 44
-50.0
173
     0
291
     1
 45
0.0
1001
ACAD
1000
AcDbSavedByObjectVersion
1070
     0
  0
VISUALSTYLE
  5
1FF
102
{ACAD_REACTORS
330
1F0
102
}
330
1F0
100
AcDbVisualStyle
  2
Facepattern
 70
    15
 71
     2
 72
     2
 73
     0
 90
        0
 40
-0.6
 41
-30.0
 62
     5
 63
     7
 74
     1
 91
        4
 64
     7
 65
   257
 75
     1
175
     1
 42
1.0
 92
        8
 66
     7
 43
1.0
 76
     1
 77
     6
 78
     2
 67
     7
 79
     5
170
     0
171
     0
290
     0
174
     0
 93
        1
 44
0.0
173
     0
291
     1
 45
0.0
1001
ACAD
1000
AcDbSavedByObjectVersion
1070
     0
  0
VISUALSTYLE
  5
1F1
102
{ACAD_REACTORS
330
1F0
102
}
330
1F0
100
AcDbVisualStyle
  2
Flat
 70
     0
 71
     2
 72
     1
 73
     1
 90
        2
 40
-0.6
 41
30.0
 62
     5
 63
     7
 74
     0
 91
        4
 64
     7
 65
   257
 75
     1
175
     1
 42
1.0
 92
        8
 66
     7
 43
1.0
 76
     1
 77
     6
 78
     2
 67
     7
 79
     5
170
     0
171
     0
290
     0
174
     0
 93
       13
 44
0.0
173
     0
291
     1
 45
0.0
1001
ACAD
1000
AcDbSavedByObjectVersion
1070
     0
  0
VISUALSTYLE
  5
1F2
102
{ACAD_REACTORS
330
1F0
102
}
330
1F0
100
AcDbVisualStyle
  2
FlatWithEdges
 70
     1
 71
     2
 72
     1
 73
     1
 90
        2
 40
-0.6
 41
30.0
 62
     5
 63
     7
 74
     1
 91
        4
 64
     7
 65
   257
 75
     1
175
     1
 42
1.0
 92
        0
 66
   257
 43
1.0
 76
     1
 77
     6
 78
     2
 67
     7
 79
     5
170
     0
171
     0
290
     0
174
     0
 93
       13
 44
0.0
173
     0
291
     1
 45
0.0
1001
ACAD
1000
AcDbSavedByObjectVersion
1070
     0
  0
VISUALSTYLE
  5
1F3
102
{ACAD_REACTORS
330
1F0
102
}
330
1F0
100
AcDbVisualStyle
  2
Gouraud
 70
     2
 71
     2
 72
     2
 73
     1
 90
        2
 40
-0.6
 41
30.0
 62
     5
 63
     7
 74
     0
 91
        4
 64
     7
 65
   257
 75
     1
175
     1
 42
1.0
 92
        0
 66
     7
 43
1.0
 76
     1
 77
     6
 78
     2
 67
     7
 79
     5
170
     0
171
     0
290
     0
174
     0
 93
       13
 44
0.0
173
     0
291
     1
 45
0.0
1001
ACAD
1000
AcDbSavedByObjectVersion
1070
     0
  0
VISUALSTYLE
  5
1F4
102
{ACAD_REACTORS
330
1F0
102
}
330
1F0
100
AcDbVisualStyle
  2
GouraudWithEdges
 70
     3
 71
     2
 72
     2
 73
     1
 90
        2
 40
-0.6
 41
30.0
 62
     5
 63
     7
 74
     1
 91
        4
 64
     7
 65
   257
 75
     1
175
     1
 42
1.0
 92
        0
 66
   257
 43
1.0
 76
     1
 77
     6
 78
     2
 67
     7
 79
     5
170
     0
171
     0
290
     0
174
     0
 93
       13
 44
0.0
173
     0
291
     1
 45
0.0
1001
ACAD
1000
AcDbSavedByObjectVersion
1070
     0
  0
VISUALSTYLE
  5
1FE
102
{ACAD_REACTORS
330
1F0
102
}
330
1F0
100
AcDbVisualStyle
  2
Linepattern
 70
    14
 71
     2
 72
     2
 73
     0
 90
        0
 40
-0.6
 41
-30.0
 62
     5
 63
     7
 74
     1
 91
        4
 64
     7
 65
   257
 75
     7
175
     7
 42
1.0
 92
        8
 66
     7
 43
1.0
 76
     1
 77
     6
 78
     2
 67
     7
 79
     5
170
     0
171
     0
290
     0
174
     0
 93
        1
 44
0.0
173
     0
291
     1
 45
0.0
1001
ACAD
1000
AcDbSavedByObjectVersion
1070
     0
  0
VISUALSTYLE
  5
1FA
102
{ACAD_REACTORS
330
1F0
102
}
330
1F0
100
AcDbVisualStyle
  2
Realistic
 70
     8
 71
     2
 72
     2
 73
     0
 90
        0
 40
-0.6
 41
-30.0
 62
     5
 63
     7
 74
     1
 91
        0
 64
     7
 65
   257
 75
     1
175
     1
 42
1.0
 92
        8
 66
     8
 43
1.0
 76
     1
 77
     6
 78
     2
 67
     7
 79
     5
170
     0
171
     0
290
     0
174
     0
 93
       13
 44
0.0
173
     0
291
     0
 45
0.0
1001
ACAD
1000
AcDbSavedByObjectVersion
1070
     0
  0
VISUALSTYLE
  5
1FD
102
{ACAD_REACTORS
330
1F0
102
}
330
1F0
100
AcDbVisualStyle
  2
Thicken
 70
    13
 71
     2
 72
     2
 73
     0
 90
        0
 40
-0.6
 41
-30.0
 62
     5
 63
     7
 74
     1
 91
        4
 64
     7
 65
   257
 75
     1
175
     1
 42
1.0
 92
       12
 66
     7
 43
1.0
 76
     1
 77
     6
 78
     2
 67
     7
 79
     5
170
     0
171
     0
290
     0
174
     0
 93
        1
 44
0.0
173
     0
291
     1
 45
0.0
1001
ACAD
1000
AcDbSavedByObjectVersion
1070
     0
  0
DICTIONARYVAR
  5
21E
102
{ACAD_REACTORS
330
21D
102
}
330
21D
100
DictionaryVariables
280
     0
  1
STANDARD
  0
DICTIONARYVAR
  5
221
102
{ACAD_REACTORS
330
21D
102
}
330
21D
100
DictionaryVariables
280
     0
  1
1
  0
DICTIONARYVAR
  5
220
102
{ACAD_REACTORS
330
21D
102
}
330
21D
100
DictionaryVariables
280
     0
  1
0
  0
DICTIONARYVAR
  5
21F
102
{ACAD_REACTORS
330
21D
102
}
330
21D
100
DictionaryVariables
280
     0
  1
127
  0
DICTIONARY
  5
11FF
330
22
100
AcDbDictionary
280
     1
281
     1
  3
ACAD_XREC_ROUNDTRIP
360
1200
  0
DICTIONARY
  5
11FD
330
1E
100
AcDbDictionary
280
     1
281
     1
  3
ACAD_XREC_ROUNDTRIP
360
11FE
  0
DICTIONARY
  5
1201
330
26
100
AcDbDictionary
280
     1
281
     1
  3
ACAD_XREC_ROUNDTRIP
360
1202
  0
DICTIONARY
  5
1205
330
1EE
100
AcDbDictionary
280
     1
281
     1
  3
ACAD_XREC_ROUNDTRIP
360
1206
  0
DICTIONARY
  5
1203
330
1ED
100
AcDbDictionary
280
     1
281
     1
  3
ACAD_XREC_ROUNDTRIP
360
1204
  0
DICTIONARY
  5
1207
330
1EF
100
AcDbDictionary
280
     1
281
     1
  3
ACAD_XREC_ROUNDTRIP
360
1208
  0
DICTIONARY
  5
1209
330
203
100
AcDbDictionary
280
     1
281
     1
  3
ACAD_XREC_ROUNDTRIP
360
120A
  0
XRECORD
  5
1200
102
{ACAD_REACTORS
330
11FF
102
}
330
11FF
100
AcDbXrecord
280
     1
102
SHADEPLOT
 70
     0
102
SHADEPLOTRESLEVEL
 70
     2
102
SHADEPLOTCUSTOMDPI
 70
   300
  0
XRECORD
  5
11FE
102
{ACAD_REACTORS
330
11FD
102
}
330
11FD
100
AcDbXrecord
280
     1
102
SHADEPLOT
 70
     0
102
SHADEPLOTRESLEVEL
 70
     2
102
SHADEPLOTCUSTOMDPI
 70
   300
  0
XRECORD
  5
1202
102
{ACAD_REACTORS
330
1201
102
}
330
1201
100
AcDbXrecord
280
     1
102
SHADEPLOT
 70
     0
102
SHADEPLOTRESLEVEL
 70
     2
102
SHADEPLOTCUSTOMDPI
 70
   300
  0
XRECORD
  5
1206
102
{ACAD_REACTORS
330
1205
102
}
330
1205
100
AcDbXrecord
280
     1
102
MATERIAL
148
0.0
149
0.0
149
0.0
 93
        0
 94
       63
282
     0
 72
     1
 77
     1
171
     1
175
     1
179
     1
273
     0
  0
XRECORD
  5
1204
102
{ACAD_REACTORS
330
1203
102
}
330
1203
100
AcDbXrecord
280
     1
102
MATERIAL
148
0.0
149
0.0
149
0.0
 93
        0
 94
       63
282
     0
 72
     1
 77
     1
171
     1
175
     1
179
     1
273
     0
  0
XRECORD
  5
1208
102
{ACAD_REACTORS
330
1207
102
}
330
1207
100
AcDbXrecord
280
     1
102
MATERIAL
148
0.0
149
0.0
149
0.0
 93
        0
 94
       63
282
     0
 72
     1
 77
     1
171
     1
175
     1
179
     1
273
     0
  0
XRECORD
  5
120A
102
{ACAD_REACTORS
330
1209
102
}
330
1209
100
AcDbXrecord
280
     1
102
ACAD_ROUNDTRIP_PRE2007_TABLESTYLE
 90
      512
 91
        0
  1

 92
      512
 93
        0
  2

 94
      512
 95
        0
  3

  0
ENDSEC
  0
EOF
