  0
SECTION
  2
HEADER
  9
$ACADVER
  1
AC1015
  9
$ACADMAINTVER
 70
    20
  9
$DWGCODEPAGE
  3
ANSI_932
  9
$INSBASE
 10
0.0
 20
0.0
 30
0.0
  9
$EXTMIN
 10
-173.9676597952004
 20
-178.3919511357524
 30
0.0
  9
$EXTMAX
 10
291.0323402047995
 20
142.6643163538192
 30
0.0
  9
$LIMMIN
 10
0.0
 20
0.0
  9
$LIMMAX
 10
420.0
 20
297.0
  9
$ORTHOMODE
 70
     1
  9
$REGENMODE
 70
     1
  9
$FILLMODE
 70
     1
  9
$QTEXTMODE
 70
     0
  9
$MIRRTEXT
 70
     1
  9
$LTSCALE
 40
1.0
  9
$ATTMODE
 70
     1
  9
$TEXTSIZE
 40
2.5
  9
$TRACEWID
 40
1.0
  9
$TEXTSTYLE
  7
Standard
  9
$CLAYER
  8
0
  9
$CELTYPE
  6
ByLayer
  9
$CECOLOR
 62
   256
  9
$CELTSCALE
 40
1.0
  9
$DISPSILH
 70
     0
  9
$DIMSCALE
 40
1.0
  9
$DIMASZ
 40
10.0
  9
$DIMEXO
 40
7.5
  9
$DIMDLI
 40
3.75
  9
$DIMRND
 40
0.0
  9
$DIMDLE
 40
0.0
  9
$DIMEXE
 40
1.25
  9
$DIMTP
 40
0.0
  9
$DIMTM
 40
0.0
  9
$DIMTXT
 40
15.0
  9
$DIMCEN
 40
2.5
  9
$DIMTSZ
 40
0.0
  9
$DIMTOL
 70
     0
  9
$DIMLIM
 70
     0
  9
$DIMTIH
 70
     0
  9
$DIMTOH
 70
     0
  9
$DIMSE1
 70
     0
  9
$DIMSE2
 70
     0
  9
$DIMTAD
 70
     1
  9
$DIMZIN
 70
     8
  9
$DIMBLK
  1

  9
$DIMASO
 70
     1
  9
$DIMSHO
 70
     1
  9
$DIMPOST
  1

  9
$DIMAPOST
  1

  9
$DIMALT
 70
     0
  9
$DIMALTD
 70
     3
  9
$DIMALTF
 40
0.03937007874016
  9
$DIMLFAC
 40
1.0
  9
$DIMTOFL
 70
     1
  9
$DIMTVP
 40
0.0
  9
$DIMTIX
 70
     0
  9
$DIMSOXD
 70
     0
  9
$DIMSAH
 70
     0
  9
$DIMBLK1
  1

  9
$DIMBLK2
  1

  9
$DIMSTYLE
  2
ISO-25
  9
$DIMCLRD
 70
     5
  9
$DIMCLRE
 70
     5
  9
$DIMCLRT
 70
     5
  9
$DIMTFAC
 40
1.0
  9
$DIMGAP
 40
5.0
  9
$DIMJUST
 70
     0
  9
$DIMSD1
 70
     0
  9
$DIMSD2
 70
     0
  9
$DIMTOLJ
 70
     0
  9
$DIMTZIN
 70
     8
  9
$DIMALTZ
 70
     0
  9
$DIMALTTZ
 70
     0
  9
$DIMUPT
 70
     0
  9
$DIMDEC
 70
     3
  9
$DIMTDEC
 70
     3
  9
$DIMALTU
 70
     2
  9
$DIMALTTD
 70
     3
  9
$DIMTXSTY
  7
Standard
  9
$DIMAUNIT
 70
     0
  9
$DIMADEC
 70
     0
  9
$DIMALTRND
 40
0.0
  9
$DIMAZIN
 70
     0
  9
$DIMDSEP
 70
    46
  9
$DIMATFIT
 70
     3
  9
$DIMFRAC
 70
     0
  9
$DIMLDRBLK
  1

  9
$DIMLUNIT
 70
     2
  9
$DIMLWD
 70
    -2
  9
$DIMLWE
 70
    -2
  9
$DIMTMOVE
 70
     0
  9
$LUNITS
 70
     2
  9
$LUPREC
 70
     4
  9
$SKETCHINC
 40
1.0
  9
$FILLETRAD
 40
8.0
  9
$AUNITS
 70
     0
  9
$AUPREC
 70
     0
  9
$MENU
  1
.
  9
$ELEVATION
 40
0.0
  9
$PELEVATION
 40
0.0
  9
$THICKNESS
 40
0.0
  9
$LIMCHECK
 70
     0
  9
$CHAMFERA
 40
10.0
  9
$CHAMFERB
 40
10.0
  9
$CHAMFERC
 40
20.0
  9
$CHAMFERD
 40
0.0
  9
$SKPOLY
 70
     0
  9
$TDCREATE
 40
2457223.653917095
  9
$TDUCREATE
 40
2457223.278917095
  9
$TDUPDATE
 40
2457276.607428808
  9
$TDUUPDATE
 40
2457276.232428808
  9
$TDINDWG
 40
0.0812860880
  9
$TDUSRTIMER
 40
0.0812844560
  9
$USRTIMER
 70
     1
  9
$ANGBASE
 50
0.0
  9
$ANGDIR
 70
     0
  9
$PDMODE
 70
     0
  9
$PDSIZE
 40
0.0
  9
$PLINEWID
 40
0.0
  9
$SPLFRAME
 70
     0
  9
$SPLINETYPE
 70
     6
  9
$SPLINESEGS
 70
     8
  9
$HANDSEED
  5
6C5
  9
$SURFTAB1
 70
     6
  9
$SURFTAB2
 70
     6
  9
$SURFTYPE
 70
     6
  9
$SURFU
 70
     6
  9
$SURFV
 70
     6
  9
$UCSBASE
  2

  9
$UCSNAME
  2

  9
$UCSORG
 10
0.0
 20
0.0
 30
0.0
  9
$UCSXDIR
 10
1.0
 20
0.0
 30
0.0
  9
$UCSYDIR
 10
0.0
 20
1.0
 30
0.0
  9
$UCSORTHOREF
  2

  9
$UCSORTHOVIEW
 70
     0
  9
$UCSORGTOP
 10
0.0
 20
0.0
 30
0.0
  9
$UCSORGBOTTOM
 10
0.0
 20
0.0
 30
0.0
  9
$UCSORGLEFT
 10
0.0
 20
0.0
 30
0.0
  9
$UCSORGRIGHT
 10
0.0
 20
0.0
 30
0.0
  9
$UCSORGFRONT
 10
0.0
 20
0.0
 30
0.0
  9
$UCSORGBACK
 10
0.0
 20
0.0
 30
0.0
  9
$PUCSBASE
  2

  9
$PUCSNAME
  2

  9
$PUCSORG
 10
0.0
 20
0.0
 30
0.0
  9
$PUCSXDIR
 10
1.0
 20
0.0
 30
0.0
  9
$PUCSYDIR
 10
0.0
 20
1.0
 30
0.0
  9
$PUCSORTHOREF
  2

  9
$PUCSORTHOVIEW
 70
     0
  9
$PUCSORGTOP
 10
0.0
 20
0.0
 30
0.0
  9
$PUCSORGBOTTOM
 10
0.0
 20
0.0
 30
0.0
  9
$PUCSORGLEFT
 10
0.0
 20
0.0
 30
0.0
  9
$PUCSORGRIGHT
 10
0.0
 20
0.0
 30
0.0
  9
$PUCSORGFRONT
 10
0.0
 20
0.0
 30
0.0
  9
$PUCSORGBACK
 10
0.0
 20
0.0
 30
0.0
  9
$USERI1
 70
     0
  9
$USERI2
 70
     0
  9
$USERI3
 70
     0
  9
$USERI4
 70
     0
  9
$USERI5
 70
     0
  9
$USERR1
 40
0.0
  9
$USERR2
 40
0.0
  9
$USERR3
 40
0.0
  9
$USERR4
 40
0.0
  9
$USERR5
 40
0.0
  9
$WORLDVIEW
 70
     1
  9
$SHADEDGE
 70
     3
  9
$SHADEDIF
 70
    70
  9
$TILEMODE
 70
     1
  9
$MAXACTVP
 70
    64
  9
$PINSBASE
 10
0.0
 20
0.0
 30
0.0
  9
$PLIMCHECK
 70
     0
  9
$PEXTMIN
 10
1.000000000000000E+20
 20
1.000000000000000E+20
 30
1.000000000000000E+20
  9
$PEXTMAX
 10
-1.000000000000000E+20
 20
-1.000000000000000E+20
 30
-1.000000000000000E+20
  9
$PLIMMIN
 10
0.0
 20
0.0
  9
$PLIMMAX
 10
420.0
 20
297.0
  9
$UNITMODE
 70
     0
  9
$VISRETAIN
 70
     1
  9
$PLINEGEN
 70
     0
  9
$PSLTSCALE
 70
     1
  9
$TREEDEPTH
 70
  3020
  9
$CMLSTYLE
  2
Standard
  9
$CMLJUST
 70
     0
  9
$CMLSCALE
 40
20.0
  9
$PROXYGRAPHICS
 70
     1
  9
$MEASUREMENT
 70
     1
  9
$CELWEIGHT
370
    -1
  9
$ENDCAPS
280
     0
  9
$JOINSTYLE
280
     0
  9
$LWDISPLAY
290
     0
  9
$INSUNITS
 70
     4
  9
$HYPERLINKBASE
  1

  9
$STYLESHEET
  1
monochrome.ctb
  9
$XEDIT
290
     1
  9
$CEPSNTYPE
380
     0
  9
$PSTYLEMODE
290
     1
  9
$FINGERPRINTGUID
  2
{B07CC4CE-274B-43EF-9877-793176896BD9}
  9
$VERSIONGUID
  2
{913D91D5-9E26-46F4-A08E-D80ADFDA2B33}
  9
$EXTNAMES
290
     1
  9
$PSVPSCALE
 40
0.0
  9
$OLESTARTUP
290
     0
  0
ENDSEC
  0
SECTION
  2
CLASSES
  0
CLASS
  1
ACDBDICTIONARYWDFLT
  2
AcDbDictionaryWithDefault
  3
ObjectDBX Classes
 90
        0
280
     0
281
     0
  0
CLASS
  1
ACDBPLACEHOLDER
  2
AcDbPlaceHolder
  3
ObjectDBX Classes
 90
        0
280
     0
281
     0
  0
CLASS
  1
LAYOUT
  2
AcDbLayout
  3
ObjectDBX Classes
 90
        0
280
     0
281
     0
  0
CLASS
  1
MATERIAL
  2
AcDbMaterial
  3
ObjectDBX Classes
 90
     1024
280
     0
281
     0
  0
CLASS
  1
VISUALSTYLE
  2
AcDbVisualStyle
  3
ObjectDBX Classes
 90
     4095
280
     0
281
     0
  0
CLASS
  1
TABLESTYLE
  2
AcDbTableStyle
  3
ObjectDBX Classes
 90
     4095
280
     0
281
     0
  0
CLASS
  1
SORTENTSTABLE
  2
AcDbSortentsTable
  3
ObjectDBX Classes
 90
        0
280
     0
281
     0
  0
CLASS
  1
DICTIONARYVAR
  2
AcDbDictionaryVar
  3
ObjectDBX Classes
 90
        0
280
     0
281
     0
  0
ENDSEC
  0
SECTION
  2
TABLES
  0
TABLE
  2
VPORT
  5
8
102
{ACAD_XDICTIONARY
360
69B
102
}
330
0
100
AcDbSymbolTable
 70
     1
  0
VPORT
  5
410
330
8
100
AcDbSymbolTableRecord
100
AcDbViewportTableRecord
  2
*Active
 70
     0
 10
0.0
 20
0.0
 11
1.0
 21
1.0
 12
300.6378002020415
 22
-21.91001064414383
 13
0.0
 23
0.0
 14
10.0
 24
10.0
 15
10.0
 25
10.0
 16
0.0
 26
0.0
 36
1.0
 17
0.0
 27
0.0
 37
0.0
 40
397.4018098833846
 41
1.848368522072936
 42
50.0
 43
0.0
 44
0.0
 50
0.0
 51
0.0
 71
     0
 72
   100
 73
     1
 74
     3
 75
     0
 76
     0
 77
     0
 78
     0
281
     0
 65
     1
110
0.0
120
0.0
130
0.0
111
1.0
121
0.0
131
0.0
112
0.0
122
1.0
132
0.0
 79
     0
146
0.0
  0
ENDTAB
  0
TABLE
  2
LTYPE
  5
5
330
0
100
AcDbSymbolTable
 70
     3
  0
LTYPE
  5
14
330
5
100
AcDbSymbolTableRecord
100
AcDbLinetypeTableRecord
  2
ByBlock
 70
     0
  3

 72
    65
 73
     0
 40
0.0
  0
LTYPE
  5
15
330
5
100
AcDbSymbolTableRecord
100
AcDbLinetypeTableRecord
  2
ByLayer
 70
     0
  3

 72
    65
 73
     0
 40
0.0
  0
LTYPE
  5
16
330
5
100
AcDbSymbolTableRecord
100
AcDbLinetypeTableRecord
  2
Continuous
 70
     0
  3
Solid line
 72
    65
 73
     0
 40
0.0
  0
LTYPE
  5
173
330
5
100
AcDbSymbolTableRecord
100
AcDbLinetypeTableRecord
  2
CENTER
 70
     0
  3
Center ____ _ ____ _ ____ _ ____ _ ____ _ ____
 72
    65
 73
     4
 40
50.8
 49
31.75
 74
     0
 49
-6.349999999999999
 74
     0
 49
6.349999999999999
 74
     0
 49
-6.349999999999999
 74
     0
  0
LTYPE
  5
187
330
5
100
AcDbSymbolTableRecord
100
AcDbLinetypeTableRecord
  2
PHANTOM
 70
     0
  3
Phantom ______  __  __  ______  __  __  ______
 72
    65
 73
     6
 40
63.5
 49
31.75
 74
     0
 49
-6.349999999999999
 74
     0
 49
6.349999999999999
 74
     0
 49
-6.349999999999999
 74
     0
 49
6.349999999999999
 74
     0
 49
-6.349999999999999
 74
     0
  0
ENDTAB
  0
TABLE
  2
LAYER
  5
2
330
0
100
AcDbSymbolTable
 70
     2
  0
LAYER
  5
10
330
2
100
AcDbSymbolTableRecord
100
AcDbLayerTableRecord
  2
0
 70
     0
 62
     7
  6
Continuous
370
    -3
390
F
  0
LAYER
  5
3B
330
2
100
AcDbSymbolTableRecord
100
AcDbLayerTableRecord
  2
Defpoints
 70
     0
 62
     7
  6
Continuous
290
     0
370
    -3
390
F
  0
ENDTAB
  0
TABLE
  2
STYLE
  5
3
330
0
100
AcDbSymbolTable
 70
     2
  0
STYLE
  5
11
330
3
100
AcDbSymbolTableRecord
100
AcDbTextStyleTableRecord
  2
Standard
 70
     0
 40
0.0
 41
1.0
 50
0.0
 71
     0
 42
2.5
  3
txt
  4

  0
STYLE
  5
172
330
3
100
AcDbSymbolTableRecord
100
AcDbTextStyleTableRecord
  2

 70
     1
 40
0.0
 41
1.0
 50
0.0
 71
     0
 42
2.5
  3
ltypeshp.shx
  4

  0
ENDTAB
  0
TABLE
  2
VIEW
  5
6
330
0
100
AcDbSymbolTable
 70
     0
  0
ENDTAB
  0
TABLE
  2
UCS
  5
7
330
0
100
AcDbSymbolTable
 70
     0
  0
ENDTAB
  0
TABLE
  2
APPID
  5
9
330
0
100
AcDbSymbolTable
 70
     2
  0
APPID
  5
12
330
9
100
AcDbSymbolTableRecord
100
AcDbRegAppTableRecord
  2
ACAD
 70
     0
  0
APPID
  5
4E8
330
9
100
AcDbSymbolTableRecord
100
AcDbRegAppTableRecord
  2
ACAD_PSEXT
 70
     0
  0
ENDTAB
  0
TABLE
  2
DIMSTYLE
  5
A
330
0
100
AcDbSymbolTable
 70
     1
100
AcDbDimStyleTable
 71
     1
340
27
  0
DIMSTYLE
105
27
102
{ACAD_REACTORS
330
44E
330
601
330
60E
330
61C
330
63E
330
647
330
654
330
663
330
67A
102
}
330
A
100
AcDbSymbolTableRecord
100
AcDbDimStyleTableRecord
  2
ISO-25
 70
     0
 41
10.0
 42
7.5
 43
3.75
 44
1.25
 73
     0
 74
     0
 77
     1
 78
     8
140
15.0
141
2.5
143
0.03937007874016
147
5.0
171
     3
172
     1
176
     5
177
     5
178
     5
271
     3
272
     3
274
     3
283
     0
284
     8
340
11
  0
ENDTAB
  0
TABLE
  2
BLOCK_RECORD
  5
1
330
0
100
AcDbSymbolTable
 70
    10
  0
BLOCK_RECORD
  5
1F
102
{ACAD_XDICTIONARY
360
42F
102
}
330
1
100
AcDbSymbolTableRecord
100
AcDbBlockTableRecord
  2
*Model_Space
340
22
  0
BLOCK_RECORD
  5
1B
330
1
100
AcDbSymbolTableRecord
100
AcDbBlockTableRecord
  2
*Paper_Space
340
1E
  0
BLOCK_RECORD
  5
23
330
1
100
AcDbSymbolTableRecord
100
AcDbBlockTableRecord
  2
*Paper_Space0
340
26
  0
BLOCK_RECORD
  5
44F
330
1
100
AcDbSymbolTableRecord
100
AcDbBlockTableRecord
  2
*D1
340
0
  0
BLOCK_RECORD
  5
602
330
1
100
AcDbSymbolTableRecord
100
AcDbBlockTableRecord
  2
*D2
340
0
  0
BLOCK_RECORD
  5
60F
330
1
100
AcDbSymbolTableRecord
100
AcDbBlockTableRecord
  2
*D3
340
0
  0
BLOCK_RECORD
  5
61D
330
1
100
AcDbSymbolTableRecord
100
AcDbBlockTableRecord
  2
*D4
340
0
  0
BLOCK_RECORD
  5
63F
330
1
100
AcDbSymbolTableRecord
100
AcDbBlockTableRecord
  2
*D5
340
0
  0
BLOCK_RECORD
  5
648
330
1
100
AcDbSymbolTableRecord
100
AcDbBlockTableRecord
  2
*D6
340
0
  0
BLOCK_RECORD
  5
655
330
1
100
AcDbSymbolTableRecord
100
AcDbBlockTableRecord
  2
*D7
340
0
  0
BLOCK_RECORD
  5
664
330
1
100
AcDbSymbolTableRecord
100
AcDbBlockTableRecord
  2
*D8
340
0
  0
BLOCK_RECORD
  5
67B
330
1
100
AcDbSymbolTableRecord
100
AcDbBlockTableRecord
  2
*D9
340
0
  0
ENDTAB
  0
ENDSEC
  0
SECTION
  2
BLOCKS
  0
BLOCK
  5
20
330
1F
100
AcDbEntity
  8
0
100
AcDbBlockBegin
  2
*Model_Space
 70
     0
 10
0.0
 20
0.0
 30
0.0
  3
*Model_Space
  1

  0
ENDBLK
  5
21
330
1F
100
AcDbEntity
  8
0
100
AcDbBlockEnd
  0
BLOCK
  5
1C
330
1B
100
AcDbEntity
 67
     1
  8
0
100
AcDbBlockBegin
  2
*Paper_Space
 70
     0
 10
0.0
 20
0.0
 30
0.0
  3
*Paper_Space
  1

  0
ENDBLK
  5
1D
330
1B
100
AcDbEntity
 67
     1
  8
0
100
AcDbBlockEnd
  0
BLOCK
  5
24
330
23
100
AcDbEntity
 67
     1
  8
0
100
AcDbBlockBegin
  2
*Paper_Space0
 70
     0
 10
0.0
 20
0.0
 30
0.0
  3
*Paper_Space0
  1

  0
ENDBLK
  5
25
330
23
100
AcDbEntity
 67
     1
  8
0
100
AcDbBlockEnd
  0
BLOCK
  5
459
330
44F
100
AcDbEntity
  8
0
100
AcDbBlockBegin
  2
*D1
 70
     1
 10
0.0
 20
0.0
 30
0.0
  3
*D1
  1

  0
LINE
  5
58C
330
44F
100
AcDbEntity
  8
0
 62
     5
370
    -2
100
AcDbLine
 10
-7.5
 20
125.0
 30
0.0
 11
-51.35630899486248
 21
125.0
 31
0.0
  0
LINE
  5
58D
330
44F
100
AcDbEntity
  8
0
 62
     5
370
    -2
100
AcDbLine
 10
-7.5
 20
-0.0000000000000121
 30
0.0
 11
-51.35630899486251
 21
0.0000000000000003
 31
0.0
  0
LINE
  5
58E
330
44F
100
AcDbEntity
  8
0
 62
     5
370
    -2
100
AcDbLine
 10
-50.10630899486248
 20
115.0
 30
0.0
 11
-50.10630899486251
 21
10.0
 31
0.0
  0
SOLID
  5
58F
330
44F
100
AcDbEntity
  8
0
 62
     5
100
AcDbTrace
 10
-51.77297566152915
 20
115.0
 30
0.0
 11
-48.43964232819581
 21
115.0
 31
0.0
 12
-50.10630899486248
 22
125.0
 32
0.0
 13
-50.10630899486248
 23
125.0
 33
0.0
  0
SOLID
  5
590
330
44F
100
AcDbEntity
  8
0
 62
     5
100
AcDbTrace
 10
-51.77297566152917
 20
10.0
 30
0.0
 11
-48.43964232819584
 21
10.0
 31
0.0
 12
-50.10630899486251
 22
0.0
 32
0.0
 13
-50.10630899486251
 23
0.0
 33
0.0
  0
MTEXT
  5
591
330
44F
100
AcDbEntity
  8
0
 62
     5
100
AcDbMText
 10
-62.6063089948625
 20
62.49999999999999
 30
0.0
 40
15.0
 41
0.0
 71
     5
 72
     1
  1
125
 11
0.0000000000000001
 21
1.0
 31
0.0
 73
     1
 44
1.0
1001
ACAD
1000
MTEXTBEGIN
1070
    73
1070
     1
1070
    44
1040
1.0
1070
    74
1070
     0
1000
MTEXTEND
  0
POINT
  5
592
330
44F
100
AcDbEntity
  8
Defpoints
 62
     0
100
AcDbPoint
 10
0.0
 20
125.0
 30
0.0
  0
POINT
  5
593
330
44F
100
AcDbEntity
  8
Defpoints
 62
     0
100
AcDbPoint
 10
0.0
 20
-0.0000000000000142
 30
0.0
  0
POINT
  5
594
330
44F
100
AcDbEntity
  8
Defpoints
 62
     0
100
AcDbPoint
 10
-50.10630899486251
 20
0.0
 30
0.0
  0
ENDBLK
  5
45A
330
44F
100
AcDbEntity
  8
0
100
AcDbBlockEnd
  0
BLOCK
  5
60C
330
602
100
AcDbEntity
  8
0
100
AcDbBlockBegin
  2
*D2
 70
     1
 10
0.0
 20
0.0
 30
0.0
  3
*D2
  1

  0
LINE
  5
687
330
602
100
AcDbEntity
  8
0
 62
     5
370
    -2
100
AcDbLine
 10
-0.0000000000000005
 20
-7.500000000000014
 30
0.0
 11
-0.0000000000000065
 21
-105.8748903417798
 31
0.0
  0
LINE
  5
688
330
602
100
AcDbEntity
  8
0
 62
     5
370
    -2
100
AcDbLine
 10
125.0
 20
-7.5
 30
0.0
 11
125.0
 21
-105.8748903417798
 31
0.0
  0
LINE
  5
689
330
602
100
AcDbEntity
  8
0
 62
     5
370
    -2
100
AcDbLine
 10
9.999999999999992
 20
-104.6248903417798
 30
0.0
 11
115.0
 21
-104.6248903417798
 31
0.0
  0
SOLID
  5
68A
330
602
100
AcDbEntity
  8
0
 62
     5
100
AcDbTrace
 10
9.999999999999992
 20
-102.9582236751132
 30
0.0
 11
9.999999999999992
 21
-106.2915570084465
 31
0.0
 12
-0.0000000000000064
 22
-104.6248903417798
 32
0.0
 13
-0.0000000000000064
 23
-104.6248903417798
 33
0.0
  0
SOLID
  5
68B
330
602
100
AcDbEntity
  8
0
 62
     5
100
AcDbTrace
 10
115.0
 20
-102.9582236751132
 30
0.0
 11
115.0
 21
-106.2915570084465
 31
0.0
 12
125.0
 22
-104.6248903417798
 32
0.0
 13
125.0
 23
-104.6248903417798
 33
0.0
  0
MTEXT
  5
68C
330
602
100
AcDbEntity
  8
0
 62
     5
100
AcDbMText
 10
62.5
 20
-92.12489034177986
 30
0.0
 40
15.0
 41
0.0
 71
     5
 72
     1
  1
125
 73
     1
 44
1.0
1001
ACAD
1000
MTEXTBEGIN
1070
    73
1070
     1
1070
    44
1040
1.0
1070
    74
1070
     0
1000
MTEXTEND
  0
POINT
  5
68D
330
602
100
AcDbEntity
  8
Defpoints
 62
     0
100
AcDbPoint
 10
0.0
 20
-0.0000000000000142
 30
0.0
  0
POINT
  5
68E
330
602
100
AcDbEntity
  8
Defpoints
 62
     0
100
AcDbPoint
 10
125.0
 20
0.0
 30
0.0
  0
POINT
  5
68F
330
602
100
AcDbEntity
  8
Defpoints
 62
     0
100
AcDbPoint
 10
125.0
 20
-104.6248903417798
 30
0.0
  0
ENDBLK
  5
60D
330
602
100
AcDbEntity
  8
0
100
AcDbBlockEnd
  0
BLOCK
  5
61A
330
60F
100
AcDbEntity
  8
0
100
AcDbBlockBegin
  2
*D3
 70
     1
 10
0.0
 20
0.0
 30
0.0
  3
*D3
  1

  0
LINE
  5
62B
330
60F
100
AcDbEntity
  8
0
 62
     5
370
    -2
100
AcDbLine
 10
93.75
 20
-12.87197118547955
 30
0.0
 11
93.75
 21
-45.94280559173921
 31
0.0
  0
LINE
  5
62C
330
60F
100
AcDbEntity
  8
0
 62
     5
370
    -2
100
AcDbLine
 10
125.0
 20
-7.5
 30
0.0
 11
125.0
 21
-45.94280559173921
 31
0.0
  0
LINE
  5
62D
330
60F
100
AcDbEntity
  8
0
 62
     5
370
    -2
100
AcDbLine
 10
103.75
 20
-44.69280559173921
 30
0.0
 11
115.0
 21
-44.69280559173921
 31
0.0
  0
LINE
  5
62E
330
60F
100
AcDbEntity
  8
0
 62
     5
370
    -2
100
AcDbLine
 10
125.0
 20
-44.69280559173921
 30
0.0
 11
200.0
 21
-44.69280559173921
 31
0.0
  0
SOLID
  5
62F
330
60F
100
AcDbEntity
  8
0
 62
     5
100
AcDbTrace
 10
103.75
 20
-43.02613892507255
 30
0.0
 11
103.75
 21
-46.35947225840587
 31
0.0
 12
93.75
 22
-44.69280559173921
 32
0.0
 13
93.75
 23
-44.69280559173921
 33
0.0
  0
SOLID
  5
630
330
60F
100
AcDbEntity
  8
0
 62
     5
100
AcDbTrace
 10
115.0
 20
-43.02613892507255
 30
0.0
 11
115.0
 21
-46.35947225840587
 31
0.0
 12
125.0
 22
-44.69280559173921
 32
0.0
 13
125.0
 23
-44.69280559173921
 33
0.0
  0
MTEXT
  5
631
330
60F
100
AcDbEntity
  8
0
 62
     5
100
AcDbMText
 10
167.5
 20
-32.19280559173922
 30
0.0
 40
15.0
 41
0.0
 71
     5
 72
     1
  1
31.25
 73
     1
 44
1.0
1001
ACAD
1000
MTEXTBEGIN
1070
    73
1070
     1
1070
    44
1040
1.0
1070
    74
1070
     0
1000
MTEXTEND
  0
POINT
  5
632
330
60F
100
AcDbEntity
  8
Defpoints
 62
     0
100
AcDbPoint
 10
93.75
 20
-5.371971185479547
 30
0.0
  0
POINT
  5
633
330
60F
100
AcDbEntity
  8
Defpoints
 62
     0
100
AcDbPoint
 10
125.0
 20
0.0
 30
0.0
  0
POINT
  5
634
330
60F
100
AcDbEntity
  8
Defpoints
 62
     0
100
AcDbPoint
 10
125.0
 20
-44.69280559173921
 30
0.0
  0
ENDBLK
  5
61B
330
60F
100
AcDbEntity
  8
0
100
AcDbBlockEnd
  0
BLOCK
  5
629
330
61D
100
AcDbEntity
  8
0
100
AcDbBlockBegin
  2
*D4
 70
     1
 10
0.0
 20
0.0
 30
0.0
  3
*D4
  1

  0
LINE
  5
61E
330
61D
100
AcDbEntity
  8
0
 62
     5
370
    -2
100
AcDbLine
 10
101.25
 20
-0.0000000000000057
 30
0.0
 11
142.1497792993236
 21
-0.0000000000000173
 31
0.0
  0
LINE
  5
61F
330
61D
100
AcDbEntity
  8
0
 62
     5
370
    -2
100
AcDbLine
 10
101.25
 20
8.999999999999998
 30
0.0
 11
142.1497792993236
 21
8.999999999999985
 31
0.0
  0
LINE
  5
620
330
61D
100
AcDbEntity
  8
0
 62
     5
370
    -2
100
AcDbLine
 10
140.8997792993236
 20
-10.00000000000001
 30
0.0
 11
140.8997792993236
 21
-20.00000000000002
 31
0.0
  0
LINE
  5
621
330
61D
100
AcDbEntity
  8
0
 62
     5
370
    -2
100
AcDbLine
 10
140.8997792993236
 20
18.99999999999998
 30
0.0
 11
140.8997792993236
 21
48.99999999999998
 31
0.0
  0
LINE
  5
622
330
61D
100
AcDbEntity
  8
0
 62
     5
370
    -2
100
AcDbLine
 10
140.8997792993236
 20
-0.0000000000000169
 30
0.0
 11
140.8997792993236
 21
8.999999999999985
 31
0.0
  0
SOLID
  5
623
330
61D
100
AcDbEntity
  8
0
 62
     5
100
AcDbTrace
 10
139.233112632657
 20
-10.00000000000001
 30
0.0
 11
142.5664459659903
 21
-10.00000000000001
 31
0.0
 12
140.8997792993236
 22
-0.0000000000000169
 32
0.0
 13
140.8997792993236
 23
-0.0000000000000169
 33
0.0
  0
SOLID
  5
624
330
61D
100
AcDbEntity
  8
0
 62
     5
100
AcDbTrace
 10
139.233112632657
 20
18.99999999999998
 30
0.0
 11
142.5664459659903
 21
18.99999999999998
 31
0.0
 12
140.8997792993236
 22
8.999999999999985
 32
0.0
 13
140.8997792993236
 23
8.999999999999985
 33
0.0
  0
MTEXT
  5
625
330
61D
100
AcDbEntity
  8
0
 62
     5
100
AcDbMText
 10
128.3997792993236
 20
39.00000000000001
 30
0.0
 40
15.0
 41
0.0
 71
     5
 72
     1
  1
9
 11
0.0000000000000001
 21
1.0
 31
0.0
 73
     1
 44
1.0
1001
ACAD
1000
MTEXTBEGIN
1070
    73
1070
     1
1070
    44
1040
1.0
1070
    74
1070
     0
1000
MTEXTEND
  0
POINT
  5
626
330
61D
100
AcDbEntity
  8
Defpoints
 62
     0
100
AcDbPoint
 10
93.75
 20
-0.0000000000000036
 30
0.0
  0
POINT
  5
627
330
61D
100
AcDbEntity
  8
Defpoints
 62
     0
100
AcDbPoint
 10
93.75
 20
9.0
 30
0.0
  0
POINT
  5
628
330
61D
100
AcDbEntity
  8
Defpoints
 62
     0
100
AcDbPoint
 10
140.8997792993236
 20
8.999999999999985
 30
0.0
  0
ENDBLK
  5
62A
330
61D
100
AcDbEntity
  8
0
100
AcDbBlockEnd
  0
BLOCK
  5
645
330
63F
100
AcDbEntity
  8
0
100
AcDbBlockBegin
  2
*D5
 70
     1
 10
0.0
 20
0.0
 30
0.0
  3
*D5
  1

  0
LINE
  5
640
330
63F
100
AcDbEntity
  8
0
 62
     5
370
    -2
100
AcDbLine
 10
11.052508290327
 20
41.35491039299405
 30
0.0
 11
49.53946843788625
 21
18.03637916565931
 31
0.0
  0
MTEXT
  5
641
330
63F
100
AcDbEntity
  8
0
 62
     5
100
AcDbMText
 10
32.49702924419303
 20
42.97741495668589
 30
0.0
 40
15.0
 41
0.0
 71
     5
 72
     1
  1
R8
 11
0.8552657810568723
 21
-0.518189582829661
 31
0.0
 73
     1
 44
1.0
1001
ACAD
1000
MTEXTBEGIN
1070
    73
1070
     1
1070
    44
1040
1.0
1070
    74
1070
     0
1000
MTEXTEND
  0
SOLID
  5
642
330
63F
100
AcDbEntity
  8
0
 62
     5
100
AcDbTrace
 10
50.40311774260236
 20
19.46182213408743
 30
0.0
 11
48.67581913317016
 21
16.6109361972312
 31
0.0
 12
58.09212624845499
 22
12.8544833373627
 32
0.0
 13
58.09212624845499
 23
12.8544833373627
 33
0.0
  0
POINT
  5
643
330
63F
100
AcDbEntity
  8
Defpoints
 62
     0
100
AcDbPoint
 10
58.09212624845499
 20
12.8544833373627
 30
0.0
  0
POINT
  5
644
330
63F
100
AcDbEntity
  8
Defpoints
 62
     0
100
AcDbPoint
 10
51.25000000000003
 20
16.99999999999998
 30
0.0
  0
ENDBLK
  5
646
330
63F
100
AcDbEntity
  8
0
100
AcDbBlockEnd
  0
BLOCK
  5
652
330
648
100
AcDbEntity
  8
0
100
AcDbBlockBegin
  2
*D6
 70
     1
 10
0.0
 20
0.0
 30
0.0
  3
*D6
  1

  0
LINE
  5
649
330
648
100
AcDbEntity
  8
0
 62
     5
370
    -2
100
AcDbLine
 10
-7.500000000000014
 20
125.0
 30
0.0
 11
-23.58577717216621
 21
125.0
 31
0.0
  0
LINE
  5
64A
330
648
100
AcDbEntity
  8
0
 62
     5
370
    -2
100
AcDbLine
 10
-4.052518491251248
 20
62.5
 30
0.0
 11
-23.58577717216622
 21
62.5
 31
0.0
  0
LINE
  5
64B
330
648
100
AcDbEntity
  8
0
 62
     5
370
    -2
100
AcDbLine
 10
-22.33577717216622
 20
115.0
 30
0.0
 11
-22.33577717216622
 21
72.5
 31
0.0
  0
SOLID
  5
64C
330
648
100
AcDbEntity
  8
0
 62
     5
100
AcDbTrace
 10
-24.00244383883288
 20
115.0
 30
0.0
 11
-20.66911050549955
 21
115.0
 31
0.0
 12
-22.33577717216621
 22
125.0
 32
0.0
 13
-22.33577717216621
 23
125.0
 33
0.0
  0
SOLID
  5
64D
330
648
100
AcDbEntity
  8
0
 62
     5
100
AcDbTrace
 10
-24.00244383883289
 20
72.5
 30
0.0
 11
-20.66911050549955
 21
72.5
 31
0.0
 12
-22.33577717216622
 22
62.5
 32
0.0
 13
-22.33577717216622
 23
62.5
 33
0.0
  0
MTEXT
  5
64E
330
648
100
AcDbEntity
  8
0
 62
     5
100
AcDbMText
 10
-34.83577717216623
 20
93.75
 30
0.0
 40
15.0
 41
0.0
 71
     5
 72
     1
  1
62.5
 11
0.0000000000000001
 21
1.0
 31
0.0
 73
     1
 44
1.0
1001
ACAD
1000
MTEXTBEGIN
1070
    73
1070
     1
1070
    44
1040
1.0
1070
    74
1070
     0
1000
MTEXTEND
  0
POINT
  5
64F
330
648
100
AcDbEntity
  8
Defpoints
 62
     0
100
AcDbPoint
 10
-0.0000000000000142
 20
125.0
 30
0.0
  0
POINT
  5
650
330
648
100
AcDbEntity
  8
Defpoints
 62
     0
100
AcDbPoint
 10
3.447481508748751
 20
62.5
 30
0.0
  0
POINT
  5
651
330
648
100
AcDbEntity
  8
Defpoints
 62
     0
100
AcDbPoint
 10
-22.33577717216622
 20
62.5
 30
0.0
  0
ENDBLK
  5
653
330
648
100
AcDbEntity
  8
0
100
AcDbBlockEnd
  0
BLOCK
  5
661
330
655
100
AcDbEntity
  8
0
100
AcDbBlockBegin
  2
*D7
 70
     1
 10
0.0
 20
0.0
 30
0.0
  3
*D7
  1

  0
LINE
  5
656
330
655
100
AcDbEntity
  8
0
 62
     5
370
    -2
100
AcDbLine
 10
65.75
 20
70.0
 30
0.0
 11
65.75
 21
69.1199730366161
 31
0.0
  0
LINE
  5
657
330
655
100
AcDbEntity
  8
0
 62
     5
370
    -2
100
AcDbLine
 10
59.25
 20
70.0
 30
0.0
 11
59.25
 21
69.1199730366161
 31
0.0
  0
LINE
  5
658
330
655
100
AcDbEntity
  8
0
 62
     5
370
    -2
100
AcDbLine
 10
75.75
 20
67.8699730366161
 30
0.0
 11
85.75000000000001
 21
67.8699730366161
 31
0.0
  0
LINE
  5
659
330
655
100
AcDbEntity
  8
0
 62
     5
370
    -2
100
AcDbLine
 10
49.25
 20
67.8699730366161
 30
0.0
 11
-0.75
 21
67.8699730366161
 31
0.0
  0
LINE
  5
65A
330
655
100
AcDbEntity
  8
0
 62
     5
370
    -2
100
AcDbLine
 10
65.75
 20
67.8699730366161
 30
0.0
 11
59.25
 21
67.8699730366161
 31
0.0
  0
SOLID
  5
65B
330
655
100
AcDbEntity
  8
0
 62
     5
100
AcDbTrace
 10
75.75
 20
69.53663970328277
 30
0.0
 11
75.75
 21
66.20330636994943
 31
0.0
 12
65.75
 22
67.8699730366161
 32
0.0
 13
65.75
 23
67.8699730366161
 33
0.0
  0
SOLID
  5
65C
330
655
100
AcDbEntity
  8
0
 62
     5
100
AcDbTrace
 10
49.25
 20
69.53663970328277
 30
0.0
 11
49.25
 21
66.20330636994943
 31
0.0
 12
59.25
 22
67.8699730366161
 32
0.0
 13
59.25
 23
67.8699730366161
 33
0.0
  0
MTEXT
  5
65D
330
655
100
AcDbEntity
  8
0
 62
     5
100
AcDbMText
 10
19.25
 20
80.3699730366161
 30
0.0
 40
15.0
 41
0.0
 71
     5
 72
     1
  1
6.5
 73
     1
 44
1.0
1001
ACAD
1000
MTEXTBEGIN
1070
    73
1070
     1
1070
    44
1040
1.0
1070
    74
1070
     0
1000
MTEXTEND
  0
POINT
  5
65E
330
655
100
AcDbEntity
  8
Defpoints
 62
     0
100
AcDbPoint
 10
65.75
 20
62.5
 30
0.0
  0
POINT
  5
65F
330
655
100
AcDbEntity
  8
Defpoints
 62
     0
100
AcDbPoint
 10
59.25
 20
62.5
 30
0.0
  0
POINT
  5
660
330
655
100
AcDbEntity
  8
Defpoints
 62
     0
100
AcDbPoint
 10
59.25
 20
67.8699730366161
 30
0.0
  0
ENDBLK
  5
662
330
655
100
AcDbEntity
  8
0
100
AcDbBlockEnd
  0
BLOCK
  5
66A
330
664
100
AcDbEntity
  8
0
100
AcDbBlockBegin
  2
*D8
 70
     1
 10
0.0
 20
0.0
 30
0.0
  3
*D8
  1

  0
LINE
  5
665
330
664
100
AcDbEntity
  8
0
 62
     5
370
    -2
100
AcDbLine
 10
108.4406070506117
 20
76.28940583243433
 30
0.0
 11
75.22619604470678
 21
106.650613014146
 31
0.0
  0
MTEXT
  5
666
330
664
100
AcDbEntity
  8
0
 62
     5
100
AcDbMText
 10
103.957560321013
 20
97.32276723807359
 30
0.0
 40
15.0
 41
0.0
 71
     5
 72
     1
  1
R8
 11
0.7380980223534424
 21
-0.6746934929269271
 31
0.0
 73
     1
 44
1.0
1001
ACAD
1000
MTEXTBEGIN
1070
    73
1070
     1
1070
    44
1040
1.0
1070
    74
1070
     0
1000
MTEXTEND
  0
SOLID
  5
667
330
664
100
AcDbEntity
  8
0
 62
     5
100
AcDbTrace
 10
76.35068519958498
 20
107.8807763847351
 30
0.0
 11
74.10170688982856
 21
105.420449643557
 31
0.0
 12
67.84521582117235
 22
113.3975479434153
 32
0.0
 13
67.84521582117235
 23
113.3975479434153
 33
0.0
  0
POINT
  5
668
330
664
100
AcDbEntity
  8
Defpoints
 62
     0
100
AcDbPoint
 10
67.84521582117235
 20
113.3975479434153
 30
0.0
  0
POINT
  5
669
330
664
100
AcDbEntity
  8
Defpoints
 62
     0
100
AcDbPoint
 10
73.7499999999999
 20
107.9999999999999
 30
0.0
  0
ENDBLK
  5
66B
330
664
100
AcDbEntity
  8
0
100
AcDbBlockEnd
  0
BLOCK
  5
685
330
67B
100
AcDbEntity
  8
0
100
AcDbBlockBegin
  2
*D9
 70
     1
 10
0.0
 20
0.0
 30
0.0
  3
*D9
  1

  0
LINE
  5
67C
330
67B
100
AcDbEntity
  8
0
 62
     5
370
    -2
100
AcDbLine
 10
125.0
 20
-7.500000000000012
 30
0.0
 11
125.0
 21
-75.2714569475703
 31
0.0
  0
LINE
  5
67D
330
67B
100
AcDbEntity
  8
0
 62
     5
370
    -2
100
AcDbLine
 10
62.5
 20
-20.37013024626367
 30
0.0
 11
62.5
 21
-75.2714569475703
 31
0.0
  0
LINE
  5
67E
330
67B
100
AcDbEntity
  8
0
 62
     5
370
    -2
100
AcDbLine
 10
115.0
 20
-74.0214569475703
 30
0.0
 11
72.5
 21
-74.0214569475703
 31
0.0
  0
SOLID
  5
67F
330
67B
100
AcDbEntity
  8
0
 62
     5
100
AcDbTrace
 10
115.0
 20
-72.35479028090363
 30
0.0
 11
115.0
 21
-75.68812361423697
 31
0.0
 12
125.0
 22
-74.0214569475703
 32
0.0
 13
125.0
 23
-74.0214569475703
 33
0.0
  0
SOLID
  5
680
330
67B
100
AcDbEntity
  8
0
 62
     5
100
AcDbTrace
 10
72.5
 20
-72.35479028090363
 30
0.0
 11
72.5
 21
-75.68812361423697
 31
0.0
 12
62.5
 22
-74.0214569475703
 32
0.0
 13
62.5
 23
-74.0214569475703
 33
0.0
  0
MTEXT
  5
681
330
67B
100
AcDbEntity
  8
0
 62
     5
100
AcDbMText
 10
93.75
 20
-61.5214569475703
 30
0.0
 40
15.0
 41
0.0
 71
     5
 72
     1
  1
62.5
 73
     1
 44
1.0
1001
ACAD
1000
MTEXTBEGIN
1070
    73
1070
     1
1070
    44
1040
1.0
1070
    74
1070
     0
1000
MTEXTEND
  0
POINT
  5
682
330
67B
100
AcDbEntity
  8
Defpoints
 62
     0
100
AcDbPoint
 10
125.0
 20
-0.0000000000000124
 30
0.0
  0
POINT
  5
683
330
67B
100
AcDbEntity
  8
Defpoints
 62
     0
100
AcDbPoint
 10
62.5
 20
-12.87013024626367
 30
0.0
  0
POINT
  5
684
330
67B
100
AcDbEntity
  8
Defpoints
 62
     0
100
AcDbPoint
 10
62.5
 20
-74.0214569475703
 30
0.0
  0
ENDBLK
  5
686
330
67B
100
AcDbEntity
  8
0
100
AcDbBlockEnd
  0
ENDSEC
  0
SECTION
  2
ENTITIES
  0
TEXT
  5
F0
330
1F
100
AcDbEntity
  8
0
100
AcDbText
 10
-173.9676597952004
 20
-178.3919511357524
 30
0.0
 40
45.0
  1
H-1251256.59
100
AcDbText
  0
LINE
  5
170
330
1F
100
AcDbEntity
  8
0
  6
CENTER
 62
     1
 48
0.3
100
AcDbLine
 10
62.5
 20
142.6643163538192
 30
0.0
 11
62.5
 21
-17.79883858230346
 31
0.0
  0
LINE
  5
30B
330
1F
100
AcDbEntity
  8
0
100
AcDbLine
 10
0.0
 20
-0.0000000000000142
 30
0.0
 11
125.0
 21
0.0
 31
0.0
  0
LINE
  5
42D
330
1F
100
AcDbEntity
  8
0
100
AcDbLine
 10
0.0
 20
-0.0000000000000142
 30
0.0
 11
0.0
 21
8.999999999999985
 31
0.0
  0
DIMENSION
  5
44E
330
1F
100
AcDbEntity
  8
0
100
AcDbDimension
  2
*D1
 10
-50.10630899486251
 20
0.0
 30
0.0
 11
-62.6063089948625
 21
62.49999999999999
 31
0.0
 70
    32
 71
     5
 42
125.0
  3
ISO-25
100
AcDbAlignedDimension
 13
0.0
 23
125.0
 33
0.0
 14
0.0
 24
-0.0000000000000142
 34
0.0
 50
90.0
100
AcDbRotatedDimension
  0
LINE
  5
45B
330
1F
100
AcDbEntity
  8
0
  6
CENTER
 62
     1
 48
0.3
100
AcDbLine
 10
-1.669724460993169
 20
62.49999999999999
 30
0.0
 11
127.454108574693
 21
62.5
 31
0.0
  0
LINE
  5
488
330
1F
100
AcDbEntity
  8
0
  6
CENTER
 62
     1
 48
0.3
100
AcDbLine
 10
93.75
 20
-5.371971185479547
 30
0.0
 11
93.75
 21
14.83346851386227
 31
0.0
  0
LINE
  5
4F1
330
1F
100
AcDbEntity
  8
0
100
AcDbLine
 10
125.0
 20
0.0
 30
0.0
 11
125.0
 21
9.0
 31
0.0
  0
LINE
  5
5F2
330
1F
100
AcDbEntity
  8
0
100
AcDbLine
 10
-0.000000000000001
 20
8.999999999999985
 30
0.0
 11
51.25
 21
8.999999999999992
 31
0.0
  0
LINE
  5
5F3
330
1F
100
AcDbEntity
  8
0
100
AcDbLine
 10
59.24999999999999
 20
108.0
 30
0.0
 11
59.25
 21
16.99999999999999
 31
0.0
  0
LINE
  5
5F4
330
1F
100
AcDbEntity
  8
0
100
AcDbLine
 10
65.75
 20
108.0
 30
0.0
 11
65.75
 21
17.0
 31
0.0
  0
ARC
  5
5F5
330
1F
100
AcDbEntity
  8
0
100
AcDbCircle
 10
51.25
 20
16.99999999999999
 30
0.0
 40
8.0
100
AcDbArc
 50
270.0
 51
0.0
  0
LINE
  5
5F6
330
1F
100
AcDbEntity
  8
0
100
AcDbLine
 10
125.0
 20
9.0
 30
0.0
 11
73.75
 21
9.0
 31
0.0
  0
ARC
  5
5F7
330
1F
100
AcDbEntity
  8
0
100
AcDbCircle
 10
73.75
 20
17.0
 30
0.0
 40
8.0
100
AcDbArc
 50
180.0
 51
270.0
  0
ARC
  5
5FA
330
1F
100
AcDbEntity
  8
0
100
AcDbCircle
 10
73.74999999999999
 20
108.0
 30
0.0
 40
8.0
100
AcDbArc
 50
90.00000000000003
 51
180.0
  0
ARC
  5
5FB
330
1F
100
AcDbEntity
  8
0
100
AcDbCircle
 10
51.25
 20
108.0
 30
0.0
 40
8.0
100
AcDbArc
 50
0.0
 51
90.00000000000003
  0
LINE
  5
5FC
330
1F
100
AcDbEntity
  8
0
100
AcDbLine
 10
-0.0000000000000142
 20
125.0
 30
0.0
 11
125.0
 21
125.0
 31
0.0
  0
LINE
  5
5FD
330
1F
100
AcDbEntity
  8
0
100
AcDbLine
 10
-0.0000000000000133
 20
116.0
 30
0.0
 11
51.24999999999999
 21
116.0
 31
0.0
  0
LINE
  5
5FE
330
1F
100
AcDbEntity
  8
0
100
AcDbLine
 10
-0.0000000000000142
 20
125.0
 30
0.0
 11
-0.0000000000000123
 21
116.0
 31
0.0
  0
LINE
  5
5FF
330
1F
100
AcDbEntity
  8
0
100
AcDbLine
 10
125.0
 20
125.0
 30
0.0
 11
125.0
 21
116.0
 31
0.0
  0
LINE
  5
600
330
1F
100
AcDbEntity
  8
0
100
AcDbLine
 10
125.0
 20
116.0
 30
0.0
 11
73.74999999999999
 21
116.0
 31
0.0
  0
DIMENSION
  5
601
330
1F
100
AcDbEntity
  8
0
100
AcDbDimension
  2
*D2
 10
125.0
 20
-104.6248903417798
 30
0.0
 11
62.5
 21
-92.12489034177986
 31
0.0
 70
    32
 71
     5
 42
125.0
  3
ISO-25
100
AcDbAlignedDimension
 13
0.0
 23
-0.0000000000000142
 33
0.0
 14
125.0
 24
0.0
 34
0.0
100
AcDbRotatedDimension
  0
DIMENSION
  5
60E
330
1F
100
AcDbEntity
  8
0
100
AcDbDimension
  2
*D3
 10
125.0
 20
-44.69280559173921
 30
0.0
 11
167.5
 21
-32.19280559173922
 31
0.0
 70
    32
 71
     5
 42
31.25
  3
ISO-25
100
AcDbAlignedDimension
 13
93.75
 23
-5.371971185479547
 33
0.0
 14
125.0
 24
0.0
 34
0.0
100
AcDbRotatedDimension
  0
DIMENSION
  5
61C
330
1F
100
AcDbEntity
  8
0
100
AcDbDimension
  2
*D4
 10
140.8997792993236
 20
8.999999999999985
 30
0.0
 11
128.3997792993236
 21
39.00000000000001
 31
0.0
 70
    32
 71
     5
 42
9.000000000000003
  3
ISO-25
100
AcDbAlignedDimension
 13
93.75
 23
-0.0000000000000036
 33
0.0
 14
93.75
 24
9.0
 34
0.0
 50
90.0
100
AcDbRotatedDimension
  0
DIMENSION
  5
63E
330
1F
100
AcDbEntity
  8
0
100
AcDbDimension
  2
*D5
 10
51.25000000000003
 20
16.99999999999998
 30
0.0
 11
26.01965945882227
 21
32.28659269347499
 31
0.0
 70
   164
 71
     5
 42
7.999999999999978
  3
ISO-25
100
AcDbRadialDimension
 15
58.09212624845499
 25
12.8544833373627
 35
0.0
 40
0.0
1001
ACAD
1000
DSTYLE
1002
{
1070
   279
1070
     1
1070
   288
1070
     1
1002
}
  0
DIMENSION
  5
647
330
1F
100
AcDbEntity
  8
0
100
AcDbDimension
  2
*D6
 10
-22.33577717216622
 20
62.5
 30
0.0
 11
-34.83577717216623
 21
93.75
 31
0.0
 70
    32
 71
     5
 42
62.5
  3
ISO-25
100
AcDbAlignedDimension
 13
-0.0000000000000142
 23
125.0
 33
0.0
 14
3.447481508748751
 24
62.5
 34
0.0
 50
90.0
100
AcDbRotatedDimension
  0
DIMENSION
  5
654
330
1F
100
AcDbEntity
  8
0
100
AcDbDimension
  2
*D7
 10
59.25
 20
67.8699730366161
 30
0.0
 11
19.25
 21
80.3699730366161
 31
0.0
 70
    32
 71
     5
 42
6.5
  3
ISO-25
100
AcDbAlignedDimension
 13
65.75
 23
62.5
 33
0.0
 14
59.25
 24
62.5
 34
0.0
100
AcDbRotatedDimension
  0
DIMENSION
  5
663
330
1F
100
AcDbEntity
  8
0
100
AcDbDimension
  2
*D8
 10
73.7499999999999
 20
107.9999999999999
 30
0.0
 11
95.52389165942646
 21
88.09654195865554
 31
0.0
 70
   164
 71
     5
 42
7.999999999999992
  3
ISO-25
100
AcDbRadialDimension
 15
67.84521582117235
 25
113.3975479434153
 35
0.0
 40
0.0
1001
ACAD
1000
DSTYLE
1002
{
1070
   288
1070
     1
1002
}
  0
DIMENSION
  5
67A
330
1F
100
AcDbEntity
  8
0
100
AcDbDimension
  2
*D9
 10
62.5
 20
-74.0214569475703
 30
0.0
 11
93.75
 21
-61.5214569475703
 31
0.0
 70
    32
 71
     5
 42
62.5
  3
ISO-25
100
AcDbAlignedDimension
 13
125.0
 23
-0.0000000000000124
 33
0.0
 14
62.5
 24
-12.87013024626367
 34
0.0
100
AcDbRotatedDimension
  0
ENDSEC
  0
SECTION
  2
OBJECTS
  0
DICTIONARY
  5
C
330
0
100
AcDbDictionary
281
     1
  3
ACAD_COLOR
350
427
  3
ACAD_GROUP
350
D
  3
ACAD_LAYOUT
350
1A
  3
ACAD_MATERIAL
350
412
  3
ACAD_MLINESTYLE
350
17
  3
ACAD_PLOTSETTINGS
350
19
  3
ACAD_PLOTSTYLENAME
350
E
  3
ACAD_TABLESTYLE
350
428
  3
ACAD_VISUALSTYLE
350
416
  3
AcDbVariableDictionary
350
4E1
  3
DWGPROPS
350
6B6
  0
DICTIONARY
  5
69B
330
8
100
AcDbDictionary
280
     1
281
     1
  0
DICTIONARY
  5
42F
330
1F
100
AcDbDictionary
280
     1
281
     1
  3
ACAD_SORTENTS
360
430
  0
DICTIONARY
  5
427
102
{ACAD_REACTORS
330
C
102
}
330
C
100
AcDbDictionary
281
     1
  0
DICTIONARY
  5
D
102
{ACAD_REACTORS
330
C
102
}
330
C
100
AcDbDictionary
281
     1
  0
DICTIONARY
  5
1A
102
{ACAD_REACTORS
330
C
102
}
330
C
100
AcDbDictionary
281
     1
  3
Model
350
22
  3
ﾚｲｱｳﾄ1
350
1E
  3
ﾚｲｱｳﾄ2
350
26
  0
DICTIONARY
  5
412
102
{ACAD_REACTORS
330
C
102
}
330
C
100
AcDbDictionary
281
     1
  3
ByBlock
350
414
  3
ByLayer
350
413
  3
Global
350
415
  0
DICTIONARY
  5
17
102
{ACAD_REACTORS
330
C
102
}
330
C
100
AcDbDictionary
281
     1
  3
Standard
350
18
  0
DICTIONARY
  5
19
102
{ACAD_REACTORS
330
C
102
}
330
C
100
AcDbDictionary
281
     1
  0
ACDBDICTIONARYWDFLT
  5
E
102
{ACAD_REACTORS
330
C
102
}
330
C
100
AcDbDictionary
281
     1
  3
Normal
350
F
100
AcDbDictionaryWithDefault
340
F
  0
DICTIONARY
  5
428
102
{ACAD_REACTORS
330
C
102
}
330
C
100
AcDbDictionary
281
     1
  3
Standard
350
429
  0
DICTIONARY
  5
416
102
{ACAD_REACTORS
330
C
102
}
330
C
100
AcDbDictionary
281
     1
  3
2dWireframe
350
41C
  3
3D Hidden
350
41E
  3
3dWireframe
350
41D
  3
Basic
350
41B
  3
Brighten
350
422
  3
ColorChange
350
426
  3
Conceptual
350
41F
  3
Dim
350
421
  3
Facepattern
350
425
  3
Flat
350
417
  3
FlatWithEdges
350
418
  3
Gouraud
350
419
  3
GouraudWithEdges
350
41A
  3
Linepattern
350
424
  3
Realistic
350
420
  3
Thicken
350
423
  0
DICTIONARY
  5
4E1
102
{ACAD_REACTORS
330
C
102
}
330
C
100
AcDbDictionary
281
     1
  3
CTABLESTYLE
350
4E2
  3
DIMASSOC
350
6B1
  3
INDEXCTL
350
6B0
  3
SORTENTS
350
6AF
  0
XRECORD
  5
6B6
102
{ACAD_REACTORS
330
C
102
}
330
C
100
AcDbXrecord
280
     1
  1
DWGPROPS COOKIE
  2

  3

  4

  6

  7

  8
K-takayama
  9

300
=
301
=
302
=
303
=
304
=
305
=
306
=
307
=
308
=
309
=
 40
0.0812860648148148
 41
2457223.653917095
 42
2457276.607428808
  1

 90
        0
  0
SORTENTSTABLE
  5
430
102
{ACAD_REACTORS
330
42F
102
}
330
42F
100
AcDbSortentsTable
330
1F
331
5F6
  5
5F7
331
5F4
  5
533
331
42D
  5
599
331
30B
  5
58A
331
5F2
  5
58B
331
170
  5
170
331
45B
  5
5F4
331
4F1
  5
59B
331
F0
  5
F0
331
5F7
  5
586
331
5F5
  5
589
331
488
  5
5F5
331
5F3
  5
588
331
44E
  5
5F3
  0
LAYOUT
  5
22
102
{ACAD_XDICTIONARY
360
6B9
102
}
102
{ACAD_REACTORS
330
1A
102
}
330
1A
100
AcDbPlotSettings
  1

  2
none_device
  4
ISO_A4_(210.00_x_297.00_MM)
  6

 40
7.5
 41
20.0
 42
7.5
 43
20.0
 44
210.0
 45
297.0
 46
0.0
 47
0.0
 48
0.0
 49
0.0
140
0.0
141
0.0
142
1.0
143
2.890312237289032
 70
 11952
 72
     1
 73
     1
 74
     0
  7
monochrome.ctb
 75
     0
147
0.345983380998985
148
333.0399985978376
149
218.2356749499461
100
AcDbLayout
  1
Model
 70
     1
 71
     0
 10
0.0
 20
0.0
 11
12.0
 21
9.0
 12
0.0
 22
0.0
 32
0.0
 14
0.0
 24
0.0
 34
0.0
 15
0.0
 25
0.0
 35
0.0
146
0.0
 13
0.0
 23
0.0
 33
0.0
 16
1.0
 26
0.0
 36
0.0
 17
0.0
 27
1.0
 37
0.0
 76
     0
330
1F
331
410
1001
ACAD_PSEXT
1000
なし
1000
なし
1000
適切ではありません
1000
新しいプロッタ環境設定名を選択しない限り、レイアウトは印刷されません。
1070
     0
  0
LAYOUT
  5
1E
102
{ACAD_XDICTIONARY
360
6B7
102
}
102
{ACAD_REACTORS
330
1A
102
}
330
1A
100
AcDbPlotSettings
  1

  2
Microsoft Office Document Image Writer
  4

  6

 40
0.0
 41
0.0
 42
0.0
 43
0.0
 44
0.0
 45
0.0
 46
0.0
 47
0.0
 48
0.0
 49
0.0
140
0.0
141
0.0
142
1.0
143
1.0
 70
   688
 72
     0
 73
     0
 74
     5
  7
monochrome.ctb
 75
    16
147
1.0
148
0.0
149
0.0
100
AcDbLayout
  1
ﾚｲｱｳﾄ1
 70
     1
 71
     1
 10
0.0
 20
0.0
 11
420.0
 21
297.0
 12
0.0
 22
0.0
 32
0.0
 14
1.000000000000000E+20
 24
1.000000000000000E+20
 34
1.000000000000000E+20
 15
-1.000000000000000E+20
 25
-1.000000000000000E+20
 35
-1.000000000000000E+20
146
0.0
 13
0.0
 23
0.0
 33
0.0
 16
1.0
 26
0.0
 36
0.0
 17
0.0
 27
1.0
 37
0.0
 76
     0
330
1B
  0
LAYOUT
  5
26
102
{ACAD_XDICTIONARY
360
6BB
102
}
102
{ACAD_REACTORS
330
1A
102
}
330
1A
100
AcDbPlotSettings
  1

  2
Microsoft Office Document Image Writer
  4

  6

 40
0.0
 41
0.0
 42
0.0
 43
0.0
 44
0.0
 45
0.0
 46
0.0
 47
0.0
 48
0.0
 49
0.0
140
0.0
141
0.0
142
1.0
143
1.0
 70
   688
 72
     0
 73
     0
 74
     5
  7
monochrome.ctb
 75
    16
147
1.0
148
0.0
149
0.0
100
AcDbLayout
  1
ﾚｲｱｳﾄ2
 70
     1
 71
     2
 10
0.0
 20
0.0
 11
12.0
 21
9.0
 12
0.0
 22
0.0
 32
0.0
 14
0.0
 24
0.0
 34
0.0
 15
0.0
 25
0.0
 35
0.0
146
0.0
 13
0.0
 23
0.0
 33
0.0
 16
1.0
 26
0.0
 36
0.0
 17
0.0
 27
1.0
 37
0.0
 76
     0
330
23
  0
MATERIAL
  5
414
102
{ACAD_XDICTIONARY
360
6BF
102
}
102
{ACAD_REACTORS
330
412
102
}
330
412
100
AcDbMaterial
  1
ByBlock
  0
MATERIAL
  5
413
102
{ACAD_XDICTIONARY
360
6BD
102
}
102
{ACAD_REACTORS
330
412
102
}
330
412
100
AcDbMaterial
  1
ByLayer
  0
MATERIAL
  5
415
102
{ACAD_XDICTIONARY
360
6C1
102
}
102
{ACAD_REACTORS
330
412
102
}
330
412
100
AcDbMaterial
  1
Global
  0
MLINESTYLE
  5
18
102
{ACAD_REACTORS
330
17
102
}
330
17
100
AcDbMlineStyle
  2
STANDARD
 70
     0
  3

 62
   256
 51
90.0
 52
90.0
 71
     2
 49
0.5
 62
   256
  6
BYLAYER
 49
-0.5
 62
   256
  6
BYLAYER
  0
ACDBPLACEHOLDER
  5
F
102
{ACAD_REACTORS
330
E
102
}
330
E
  0
TABLESTYLE
  5
429
102
{ACAD_XDICTIONARY
360
6C3
102
}
102
{ACAD_REACTORS
330
428
102
}
330
428
100
AcDbTableStyle
  3
Standard
 70
     0
 71
     0
 40
1.5
 41
1.5
280
     0
281
     0
  7
Standard
140
4.5
170
     2
 62
     0
 63
     7
283
     0
274
    -2
284
     1
 64
     0
275
    -2
285
     1
 65
     0
276
    -2
286
     1
 66
     0
277
    -2
287
     1
 67
     0
278
    -2
288
     1
 68
     0
279
    -2
289
     1
 69
     0
  7
Standard
140
6.0
170
     5
 62
     0
 63
     7
283
     0
274
    -2
284
     1
 64
     0
275
    -2
285
     1
 65
     0
276
    -2
286
     1
 66
     0
277
    -2
287
     1
 67
     0
278
    -2
288
     1
 68
     0
279
    -2
289
     1
 69
     0
  7
Standard
140
4.5
170
     5
 62
     0
 63
     7
283
     0
274
    -2
284
     1
 64
     0
275
    -2
285
     1
 65
     0
276
    -2
286
     1
 66
     0
277
    -2
287
     1
 67
     0
278
    -2
288
     1
 68
     0
279
    -2
289
     1
 69
     0
  0
VISUALSTYLE
  5
41C
102
{ACAD_REACTORS
330
416
102
}
330
416
100
AcDbVisualStyle
  2
2dWireframe
 70
     4
 71
     0
 72
     2
 73
     0
 90
        0
 40
-0.6
 41
-30.0
 62
     5
 63
     7
 74
     1
 91
        4
 64
     7
 65
   257
 75
     1
175
     1
 42
1.0
 92
        0
 66
   257
 43
1.0
 76
     1
 77
     6
 78
     2
 67
     7
 79
     5
170
     0
171
     0
290
     0
174
     0
 93
        1
 44
0.0
173
     0
291
     0
 45
0.0
1001
ACAD
1000
AcDbSavedByObjectVersion
1070
     0
  0
VISUALSTYLE
  5
41E
102
{ACAD_REACTORS
330
416
102
}
330
416
100
AcDbVisualStyle
  2
3D Hidden
 70
     6
 71
     1
 72
     2
 73
     2
 90
        0
 40
-0.6
 41
-30.0
 62
     5
 63
     7
 74
     2
 91
        2
 64
     7
 65
   257
 75
     2
175
     1
 42
40.0
 92
        0
 66
   257
 43
1.0
 76
     1
 77
     6
 78
     2
 67
     7
 79
     3
170
     0
171
     0
290
     0
174
     0
 93
        1
 44
0.0
173
     0
291
     0
 45
0.0
1001
ACAD
1000
AcDbSavedByObjectVersion
1070
     0
  0
VISUALSTYLE
  5
41D
102
{ACAD_REACTORS
330
416
102
}
330
416
100
AcDbVisualStyle
  2
3dWireframe
 70
     5
 71
     0
 72
     2
 73
     0
 90
        0
 40
-0.6
 41
-30.0
 62
     5
 63
     7
 74
     1
 91
        4
 64
     7
 65
   257
 75
     1
175
     1
 42
1.0
 92
        0
 66
   257
 43
1.0
 76
     1
 77
     6
 78
     2
 67
     7
 79
     5
170
     0
171
     0
290
     0
174
     0
 93
        1
 44
0.0
173
     0
291
     0
 45
0.0
1001
ACAD
1000
AcDbSavedByObjectVersion
1070
     0
  0
VISUALSTYLE
  5
41B
102
{ACAD_REACTORS
330
416
102
}
330
416
100
AcDbVisualStyle
  2
Basic
 70
     7
 71
     1
 72
     0
 73
     1
 90
        0
 40
-0.6
 41
-30.0
 62
     5
 63
     7
 74
     0
 91
        4
 64
     7
 65
   257
 75
     1
175
     1
 42
1.0
 92
        8
 66
     7
 43
1.0
 76
     1
 77
     6
 78
     2
 67
     7
 79
     5
170
     0
171
     0
290
     0
174
     0
 93
        1
 44
0.0
173
     0
291
     1
 45
0.0
1001
ACAD
1000
AcDbSavedByObjectVersion
1070
     0
  0
VISUALSTYLE
  5
422
102
{ACAD_REACTORS
330
416
102
}
330
416
100
AcDbVisualStyle
  2
Brighten
 70
    12
 71
     2
 72
     2
 73
     0
 90
        0
 40
-0.6
 41
-30.0
 62
     5
 63
     7
 74
     1
 91
        4
 64
     7
 65
   257
 75
     1
175
     1
 42
1.0
 92
        8
 66
     7
 43
1.0
 76
     1
 77
     6
 78
     2
 67
     7
 79
     5
170
     0
171
     0
290
     0
174
     0
 93
        1
 44
50.0
173
     0
291
     1
 45
0.0
1001
ACAD
1000
AcDbSavedByObjectVersion
1070
     0
  0
VISUALSTYLE
  5
426
102
{ACAD_REACTORS
330
416
102
}
330
416
100
AcDbVisualStyle
  2
ColorChange
 70
    16
 71
     2
 72
     2
 73
     3
 90
        0
 40
-0.6
 41
-30.0
 62
     5
 63
     8
 74
     1
 91
        4
 64
     7
 65
   257
 75
     1
175
     1
 42
1.0
 92
        8
 66
     8
 43
1.0
 76
     1
 77
     6
 78
     2
 67
     7
 79
     5
170
     0
171
     0
290
     0
174
     0
 93
        1
 44
0.0
173
     0
291
     1
 45
0.0
1001
ACAD
1000
AcDbSavedByObjectVersion
1070
     0
  0
VISUALSTYLE
  5
41F
102
{ACAD_REACTORS
330
416
102
}
330
416
100
AcDbVisualStyle
  2
Conceptual
 70
     9
 71
     3
 72
     2
 73
     0
 90
        0
 40
-0.6
 41
-30.0
 62
     5
 63
     7
 74
     2
 91
        2
 64
     7
 65
   257
 75
     1
175
     1
 42
40.0
 92
        8
 66
     7
 43
1.0
 76
     1
 77
     6
 78
     2
 67
     7
 79
     3
170
     0
171
     0
290
     0
174
     0
 93
        1
 44
0.0
173
     0
291
     0
 45
0.0
1001
ACAD
1000
AcDbSavedByObjectVersion
1070
     0
  0
VISUALSTYLE
  5
421
102
{ACAD_REACTORS
330
416
102
}
330
416
100
AcDbVisualStyle
  2
Dim
 70
    11
 71
     2
 72
     2
 73
     0
 90
        0
 40
-0.6
 41
-30.0
 62
     5
 63
     7
 74
     1
 91
        4
 64
     7
 65
   257
 75
     1
175
     1
 42
1.0
 92
        8
 66
     7
 43
1.0
 76
     1
 77
     6
 78
     2
 67
     7
 79
     5
170
     0
171
     0
290
     0
174
     0
 93
        1
 44
-50.0
173
     0
291
     1
 45
0.0
1001
ACAD
1000
AcDbSavedByObjectVersion
1070
     0
  0
VISUALSTYLE
  5
425
102
{ACAD_REACTORS
330
416
102
}
330
416
100
AcDbVisualStyle
  2
Facepattern
 70
    15
 71
     2
 72
     2
 73
     0
 90
        0
 40
-0.6
 41
-30.0
 62
     5
 63
     7
 74
     1
 91
        4
 64
     7
 65
   257
 75
     1
175
     1
 42
1.0
 92
        8
 66
     7
 43
1.0
 76
     1
 77
     6
 78
     2
 67
     7
 79
     5
170
     0
171
     0
290
     0
174
     0
 93
        1
 44
0.0
173
     0
291
     1
 45
0.0
1001
ACAD
1000
AcDbSavedByObjectVersion
1070
     0
  0
VISUALSTYLE
  5
417
102
{ACAD_REACTORS
330
416
102
}
330
416
100
AcDbVisualStyle
  2
Flat
 70
     0
 71
     2
 72
     1
 73
     1
 90
        2
 40
-0.6
 41
30.0
 62
     5
 63
     7
 74
     0
 91
        4
 64
     7
 65
   257
 75
     1
175
     1
 42
1.0
 92
        8
 66
     7
 43
1.0
 76
     1
 77
     6
 78
     2
 67
     7
 79
     5
170
     0
171
     0
290
     0
174
     0
 93
       13
 44
0.0
173
     0
291
     1
 45
0.0
1001
ACAD
1000
AcDbSavedByObjectVersion
1070
     0
  0
VISUALSTYLE
  5
418
102
{ACAD_REACTORS
330
416
102
}
330
416
100
AcDbVisualStyle
  2
FlatWithEdges
 70
     1
 71
     2
 72
     1
 73
     1
 90
        2
 40
-0.6
 41
30.0
 62
     5
 63
     7
 74
     1
 91
        4
 64
     7
 65
   257
 75
     1
175
     1
 42
1.0
 92
        0
 66
   257
 43
1.0
 76
     1
 77
     6
 78
     2
 67
     7
 79
     5
170
     0
171
     0
290
     0
174
     0
 93
       13
 44
0.0
173
     0
291
     1
 45
0.0
1001
ACAD
1000
AcDbSavedByObjectVersion
1070
     0
  0
VISUALSTYLE
  5
419
102
{ACAD_REACTORS
330
416
102
}
330
416
100
AcDbVisualStyle
  2
Gouraud
 70
     2
 71
     2
 72
     2
 73
     1
 90
        2
 40
-0.6
 41
30.0
 62
     5
 63
     7
 74
     0
 91
        4
 64
     7
 65
   257
 75
     1
175
     1
 42
1.0
 92
        0
 66
     7
 43
1.0
 76
     1
 77
     6
 78
     2
 67
     7
 79
     5
170
     0
171
     0
290
     0
174
     0
 93
       13
 44
0.0
173
     0
291
     1
 45
0.0
1001
ACAD
1000
AcDbSavedByObjectVersion
1070
     0
  0
VISUALSTYLE
  5
41A
102
{ACAD_REACTORS
330
416
102
}
330
416
100
AcDbVisualStyle
  2
GouraudWithEdges
 70
     3
 71
     2
 72
     2
 73
     1
 90
        2
 40
-0.6
 41
30.0
 62
     5
 63
     7
 74
     1
 91
        4
 64
     7
 65
   257
 75
     1
175
     1
 42
1.0
 92
        0
 66
   257
 43
1.0
 76
     1
 77
     6
 78
     2
 67
     7
 79
     5
170
     0
171
     0
290
     0
174
     0
 93
       13
 44
0.0
173
     0
291
     1
 45
0.0
1001
ACAD
1000
AcDbSavedByObjectVersion
1070
     0
  0
VISUALSTYLE
  5
424
102
{ACAD_REACTORS
330
416
102
}
330
416
100
AcDbVisualStyle
  2
Linepattern
 70
    14
 71
     2
 72
     2
 73
     0
 90
        0
 40
-0.6
 41
-30.0
 62
     5
 63
     7
 74
     1
 91
        4
 64
     7
 65
   257
 75
     7
175
     7
 42
1.0
 92
        8
 66
     7
 43
1.0
 76
     1
 77
     6
 78
     2
 67
     7
 79
     5
170
     0
171
     0
290
     0
174
     0
 93
        1
 44
0.0
173
     0
291
     1
 45
0.0
1001
ACAD
1000
AcDbSavedByObjectVersion
1070
     0
  0
VISUALSTYLE
  5
420
102
{ACAD_REACTORS
330
416
102
}
330
416
100
AcDbVisualStyle
  2
Realistic
 70
     8
 71
     2
 72
     2
 73
     0
 90
        0
 40
-0.6
 41
-30.0
 62
     5
 63
     7
 74
     1
 91
        0
 64
     7
 65
   257
 75
     1
175
     1
 42
1.0
 92
        8
 66
     8
 43
1.0
 76
     1
 77
     6
 78
     2
 67
     7
 79
     5
170
     0
171
     0
290
     0
174
     0
 93
       13
 44
0.0
173
     0
291
     0
 45
0.0
1001
ACAD
1000
AcDbSavedByObjectVersion
1070
     0
  0
VISUALSTYLE
  5
423
102
{ACAD_REACTORS
330
416
102
}
330
416
100
AcDbVisualStyle
  2
Thicken
 70
    13
 71
     2
 72
     2
 73
     0
 90
        0
 40
-0.6
 41
-30.0
 62
     5
 63
     7
 74
     1
 91
        4
 64
     7
 65
   257
 75
     1
175
     1
 42
1.0
 92
       12
 66
     7
 43
1.0
 76
     1
 77
     6
 78
     2
 67
     7
 79
     5
170
     0
171
     0
290
     0
174
     0
 93
        1
 44
0.0
173
     0
291
     1
 45
0.0
1001
ACAD
1000
AcDbSavedByObjectVersion
1070
     0
  0
DICTIONARYVAR
  5
4E2
102
{ACAD_REACTORS
330
4E1
102
}
330
4E1
100
DictionaryVariables
280
     0
  1
STANDARD
  0
DICTIONARYVAR
  5
6B1
102
{ACAD_REACTORS
330
4E1
102
}
330
4E1
100
DictionaryVariables
280
     0
  1
1
  0
DICTIONARYVAR
  5
6B0
102
{ACAD_REACTORS
330
4E1
102
}
330
4E1
100
DictionaryVariables
280
     0
  1
0
  0
DICTIONARYVAR
  5
6AF
102
{ACAD_REACTORS
330
4E1
102
}
330
4E1
100
DictionaryVariables
280
     0
  1
127
  0
DICTIONARY
  5
6B9
330
22
100
AcDbDictionary
280
     1
281
     1
  3
ACAD_XREC_ROUNDTRIP
360
6BA
  0
DICTIONARY
  5
6B7
330
1E
100
AcDbDictionary
280
     1
281
     1
  3
ACAD_XREC_ROUNDTRIP
360
6B8
  0
DICTIONARY
  5
6BB
330
26
100
AcDbDictionary
280
     1
281
     1
  3
ACAD_XREC_ROUNDTRIP
360
6BC
  0
DICTIONARY
  5
6BF
330
414
100
AcDbDictionary
280
     1
281
     1
  3
ACAD_XREC_ROUNDTRIP
360
6C0
  0
DICTIONARY
  5
6BD
330
413
100
AcDbDictionary
280
     1
281
     1
  3
ACAD_XREC_ROUNDTRIP
360
6BE
  0
DICTIONARY
  5
6C1
330
415
100
AcDbDictionary
280
     1
281
     1
  3
ACAD_XREC_ROUNDTRIP
360
6C2
  0
DICTIONARY
  5
6C3
330
429
100
AcDbDictionary
280
     1
281
     1
  3
ACAD_XREC_ROUNDTRIP
360
6C4
  0
XRECORD
  5
6BA
102
{ACAD_REACTORS
330
6B9
102
}
330
6B9
100
AcDbXrecord
280
     1
102
SHADEPLOT
 70
     0
102
SHADEPLOTRESLEVEL
 70
     2
102
SHADEPLOTCUSTOMDPI
 70
   300
  0
XRECORD
  5
6B8
102
{ACAD_REACTORS
330
6B7
102
}
330
6B7
100
AcDbXrecord
280
     1
102
SHADEPLOT
 70
     0
102
SHADEPLOTRESLEVEL
 70
     2
102
SHADEPLOTCUSTOMDPI
 70
   300
  0
XRECORD
  5
6BC
102
{ACAD_REACTORS
330
6BB
102
}
330
6BB
100
AcDbXrecord
280
     1
102
SHADEPLOT
 70
     0
102
SHADEPLOTRESLEVEL
 70
     2
102
SHADEPLOTCUSTOMDPI
 70
   300
  0
XRECORD
  5
6C0
102
{ACAD_REACTORS
330
6BF
102
}
330
6BF
100
AcDbXrecord
280
     1
102
MATERIAL
148
0.0
149
0.0
149
0.0
 93
        0
 94
       63
282
     0
 72
     1
 77
     1
171
     1
175
     1
179
     1
273
     0
  0
XRECORD
  5
6BE
102
{ACAD_REACTORS
330
6BD
102
}
330
6BD
100
AcDbXrecord
280
     1
102
MATERIAL
148
0.0
149
0.0
149
0.0
 93
        0
 94
       63
282
     0
 72
     1
 77
     1
171
     1
175
     1
179
     1
273
     0
  0
XRECORD
  5
6C2
102
{ACAD_REACTORS
330
6C1
102
}
330
6C1
100
AcDbXrecord
280
     1
102
MATERIAL
148
0.0
149
0.0
149
0.0
 93
        0
 94
       63
282
     0
 72
     1
 77
     1
171
     1
175
     1
179
     1
273
     0
  0
XRECORD
  5
6C4
102
{ACAD_REACTORS
330
6C3
102
}
330
6C3
100
AcDbXrecord
280
     1
102
ACAD_ROUNDTRIP_PRE2007_TABLESTYLE
 90
      512
 91
        0
  1

 92
      512
 93
        0
  2

 94
      512
 95
        0
  3

  0
ENDSEC
  0
EOF
