  0
SECTION
  2
HEADER
  9
$ACADVER
  1
AC1015
  9
$ACADMAINTVER
 70
    20
  9
$DWGCODEPAGE
  3
ANSI_932
  9
$INSBASE
 10
0.0
 20
0.0
 30
0.0
  9
$EXTMIN
 10
-61.91087839799162
 20
-68.46774544020312
 30
0.0
  9
$EXTMAX
 10
62.10705963764798
 20
70.95404969165747
 30
0.0
  9
$LIMMIN
 10
0.0
 20
0.0
  9
$LIMMAX
 10
420.0
 20
297.0
  9
$ORTHOMODE
 70
     1
  9
$REGENMODE
 70
     1
  9
$FILLMODE
 70
     1
  9
$QTEXTMODE
 70
     0
  9
$MIRRTEXT
 70
     1
  9
$LTSCALE
 40
1.0
  9
$ATTMODE
 70
     1
  9
$TEXTSIZE
 40
2.5
  9
$TRACEWID
 40
1.0
  9
$TEXTSTYLE
  7
Standard
  9
$CLAYER
  8
0
  9
$CELTYPE
  6
ByLayer
  9
$CECOLOR
 62
   256
  9
$CELTSCALE
 40
1.0
  9
$DISPSILH
 70
     0
  9
$DIMSCALE
 40
1.0
  9
$DIMASZ
 40
5.0
  9
$DIMEXO
 40
5.0
  9
$DIMDLI
 40
3.75
  9
$DIMRND
 40
0.0
  9
$DIMDLE
 40
0.0
  9
$DIMEXE
 40
1.25
  9
$DIMTP
 40
0.0
  9
$DIMTM
 40
0.0
  9
$DIMTXT
 40
7.0
  9
$DIMCEN
 40
2.5
  9
$DIMTSZ
 40
0.0
  9
$DIMTOL
 70
     0
  9
$DIMLIM
 70
     0
  9
$DIMTIH
 70
     0
  9
$DIMTOH
 70
     0
  9
$DIMSE1
 70
     0
  9
$DIMSE2
 70
     0
  9
$DIMTAD
 70
     1
  9
$DIMZIN
 70
     8
  9
$DIMBLK
  1

  9
$DIMASO
 70
     1
  9
$DIMSHO
 70
     1
  9
$DIMPOST
  1

  9
$DIMAPOST
  1

  9
$DIMALT
 70
     0
  9
$DIMALTD
 70
     3
  9
$DIMALTF
 40
0.03937007874016
  9
$DIMLFAC
 40
1.0
  9
$DIMTOFL
 70
     1
  9
$DIMTVP
 40
0.0
  9
$DIMTIX
 70
     0
  9
$DIMSOXD
 70
     0
  9
$DIMSAH
 70
     0
  9
$DIMBLK1
  1

  9
$DIMBLK2
  1

  9
$DIMSTYLE
  2
ISO-25
  9
$DIMCLRD
 70
     5
  9
$DIMCLRE
 70
     5
  9
$DIMCLRT
 70
     5
  9
$DIMTFAC
 40
1.0
  9
$DIMGAP
 40
3.0
  9
$DIMJUST
 70
     0
  9
$DIMSD1
 70
     0
  9
$DIMSD2
 70
     0
  9
$DIMTOLJ
 70
     0
  9
$DIMTZIN
 70
     8
  9
$DIMALTZ
 70
     0
  9
$DIMALTTZ
 70
     0
  9
$DIMUPT
 70
     0
  9
$DIMDEC
 70
     2
  9
$DIMTDEC
 70
     2
  9
$DIMALTU
 70
     2
  9
$DIMALTTD
 70
     3
  9
$DIMTXSTY
  7
Standard
  9
$DIMAUNIT
 70
     0
  9
$DIMADEC
 70
     0
  9
$DIMALTRND
 40
0.0
  9
$DIMAZIN
 70
     0
  9
$DIMDSEP
 70
    46
  9
$DIMATFIT
 70
     3
  9
$DIMFRAC
 70
     0
  9
$DIMLDRBLK
  1

  9
$DIMLUNIT
 70
     2
  9
$DIMLWD
 70
    -2
  9
$DIMLWE
 70
    -2
  9
$DIMTMOVE
 70
     0
  9
$LUNITS
 70
     2
  9
$LUPREC
 70
     4
  9
$SKETCHINC
 40
1.0
  9
$FILLETRAD
 40
69.86
  9
$AUNITS
 70
     0
  9
$AUPREC
 70
     0
  9
$MENU
  1
.
  9
$ELEVATION
 40
0.0
  9
$PELEVATION
 40
0.0
  9
$THICKNESS
 40
0.0
  9
$LIMCHECK
 70
     0
  9
$CHAMFERA
 40
10.0
  9
$CHAMFERB
 40
10.0
  9
$CHAMFERC
 40
20.0
  9
$CHAMFERD
 40
0.0
  9
$SKPOLY
 70
     0
  9
$TDCREATE
 40
2457229.701635197
  9
$TDUCREATE
 40
2457229.326635197
  9
$TDUPDATE
 40
2457276.641014398
  9
$TDUUPDATE
 40
2457276.266014398
  9
$TDINDWG
 40
0.2833775000
  9
$TDUSRTIMER
 40
0.2833756944
  9
$USRTIMER
 70
     1
  9
$ANGBASE
 50
0.0
  9
$ANGDIR
 70
     0
  9
$PDMODE
 70
     0
  9
$PDSIZE
 40
0.0
  9
$PLINEWID
 40
0.0
  9
$SPLFRAME
 70
     0
  9
$SPLINETYPE
 70
     6
  9
$SPLINESEGS
 70
     8
  9
$HANDSEED
  5
18DB
  9
$SURFTAB1
 70
     6
  9
$SURFTAB2
 70
     6
  9
$SURFTYPE
 70
     6
  9
$SURFU
 70
     6
  9
$SURFV
 70
     6
  9
$UCSBASE
  2

  9
$UCSNAME
  2

  9
$UCSORG
 10
0.0
 20
0.0
 30
0.0
  9
$UCSXDIR
 10
1.0
 20
0.0
 30
0.0
  9
$UCSYDIR
 10
0.0
 20
1.0
 30
0.0
  9
$UCSORTHOREF
  2

  9
$UCSORTHOVIEW
 70
     0
  9
$UCSORGTOP
 10
0.0
 20
0.0
 30
0.0
  9
$UCSORGBOTTOM
 10
0.0
 20
0.0
 30
0.0
  9
$UCSORGLEFT
 10
0.0
 20
0.0
 30
0.0
  9
$UCSORGRIGHT
 10
0.0
 20
0.0
 30
0.0
  9
$UCSORGFRONT
 10
0.0
 20
0.0
 30
0.0
  9
$UCSORGBACK
 10
0.0
 20
0.0
 30
0.0
  9
$PUCSBASE
  2

  9
$PUCSNAME
  2

  9
$PUCSORG
 10
0.0
 20
0.0
 30
0.0
  9
$PUCSXDIR
 10
1.0
 20
0.0
 30
0.0
  9
$PUCSYDIR
 10
0.0
 20
1.0
 30
0.0
  9
$PUCSORTHOREF
  2

  9
$PUCSORTHOVIEW
 70
     0
  9
$PUCSORGTOP
 10
0.0
 20
0.0
 30
0.0
  9
$PUCSORGBOTTOM
 10
0.0
 20
0.0
 30
0.0
  9
$PUCSORGLEFT
 10
0.0
 20
0.0
 30
0.0
  9
$PUCSORGRIGHT
 10
0.0
 20
0.0
 30
0.0
  9
$PUCSORGFRONT
 10
0.0
 20
0.0
 30
0.0
  9
$PUCSORGBACK
 10
0.0
 20
0.0
 30
0.0
  9
$USERI1
 70
     0
  9
$USERI2
 70
     0
  9
$USERI3
 70
     0
  9
$USERI4
 70
     0
  9
$USERI5
 70
     0
  9
$USERR1
 40
0.0
  9
$USERR2
 40
0.0
  9
$USERR3
 40
0.0
  9
$USERR4
 40
0.0
  9
$USERR5
 40
0.0
  9
$WORLDVIEW
 70
     1
  9
$SHADEDGE
 70
     3
  9
$SHADEDIF
 70
    70
  9
$TILEMODE
 70
     1
  9
$MAXACTVP
 70
    64
  9
$PINSBASE
 10
0.0
 20
0.0
 30
0.0
  9
$PLIMCHECK
 70
     0
  9
$PEXTMIN
 10
1.000000000000000E+20
 20
1.000000000000000E+20
 30
1.000000000000000E+20
  9
$PEXTMAX
 10
-1.000000000000000E+20
 20
-1.000000000000000E+20
 30
-1.000000000000000E+20
  9
$PLIMMIN
 10
0.0
 20
0.0
  9
$PLIMMAX
 10
420.0
 20
297.0
  9
$UNITMODE
 70
     0
  9
$VISRETAIN
 70
     1
  9
$PLINEGEN
 70
     0
  9
$PSLTSCALE
 70
     1
  9
$TREEDEPTH
 70
  3020
  9
$CMLSTYLE
  2
Standard
  9
$CMLJUST
 70
     0
  9
$CMLSCALE
 40
20.0
  9
$PROXYGRAPHICS
 70
     1
  9
$MEASUREMENT
 70
     1
  9
$CELWEIGHT
370
    -1
  9
$ENDCAPS
280
     0
  9
$JOINSTYLE
280
     0
  9
$LWDISPLAY
290
     0
  9
$INSUNITS
 70
     4
  9
$HYPERLINKBASE
  1

  9
$STYLESHEET
  1
monochrome.ctb
  9
$XEDIT
290
     1
  9
$CEPSNTYPE
380
     0
  9
$PSTYLEMODE
290
     1
  9
$FINGERPRINTGUID
  2
{FB2BCB4F-F75E-4475-AED9-EBB68D6301DA}
  9
$VERSIONGUID
  2
{4663D2C1-C9A1-451F-9D6E-66EE94895D03}
  9
$EXTNAMES
290
     1
  9
$PSVPSCALE
 40
0.0
  9
$OLESTARTUP
290
     0
  0
ENDSEC
  0
SECTION
  2
CLASSES
  0
CLASS
  1
ACDBDICTIONARYWDFLT
  2
AcDbDictionaryWithDefault
  3
ObjectDBX Classes
 90
        0
280
     0
281
     0
  0
CLASS
  1
ACDBPLACEHOLDER
  2
AcDbPlaceHolder
  3
ObjectDBX Classes
 90
        0
280
     0
281
     0
  0
CLASS
  1
LAYOUT
  2
AcDbLayout
  3
ObjectDBX Classes
 90
        0
280
     0
281
     0
  0
CLASS
  1
MATERIAL
  2
AcDbMaterial
  3
ObjectDBX Classes
 90
     1024
280
     0
281
     0
  0
CLASS
  1
VISUALSTYLE
  2
AcDbVisualStyle
  3
ObjectDBX Classes
 90
     4095
280
     0
281
     0
  0
CLASS
  1
TABLESTYLE
  2
AcDbTableStyle
  3
ObjectDBX Classes
 90
     4095
280
     0
281
     0
  0
CLASS
  1
DICTIONARYVAR
  2
AcDbDictionaryVar
  3
ObjectDBX Classes
 90
        0
280
     0
281
     0
  0
CLASS
  1
SORTENTSTABLE
  2
AcDbSortentsTable
  3
ObjectDBX Classes
 90
        0
280
     0
281
     0
  0
ENDSEC
  0
SECTION
  2
TABLES
  0
TABLE
  2
VPORT
  5
8
102
{ACAD_XDICTIONARY
360
207
102
}
330
0
100
AcDbSymbolTable
 70
     1
  0
VPORT
  5
1EA
330
8
100
AcDbSymbolTableRecord
100
AcDbViewportTableRecord
  2
*Active
 70
     0
 10
0.0
 20
0.0
 11
1.0
 21
1.0
 12
130.7543238664912
 22
-1.768207252168764
 13
0.0
 23
0.0
 14
10.0
 24
10.0
 15
10.0
 25
10.0
 16
0.0
 26
0.0
 36
1.0
 17
0.0
 27
0.0
 37
0.0
 40
222.4576139161766
 41
1.848368522072936
 42
50.0
 43
0.0
 44
0.0
 50
0.0
 51
0.0
 71
     0
 72
   100
 73
     1
 74
     3
 75
     0
 76
     0
 77
     0
 78
     0
281
     0
 65
     1
110
0.0
120
0.0
130
0.0
111
1.0
121
0.0
131
0.0
112
0.0
122
1.0
132
0.0
 79
     0
146
0.0
  0
ENDTAB
  0
TABLE
  2
LTYPE
  5
5
330
0
100
AcDbSymbolTable
 70
     2
  0
LTYPE
  5
14
330
5
100
AcDbSymbolTableRecord
100
AcDbLinetypeTableRecord
  2
ByBlock
 70
     0
  3

 72
    65
 73
     0
 40
0.0
  0
LTYPE
  5
15
330
5
100
AcDbSymbolTableRecord
100
AcDbLinetypeTableRecord
  2
ByLayer
 70
     0
  3

 72
    65
 73
     0
 40
0.0
  0
LTYPE
  5
16
330
5
100
AcDbSymbolTableRecord
100
AcDbLinetypeTableRecord
  2
Continuous
 70
     0
  3
Solid line
 72
    65
 73
     0
 40
0.0
  0
LTYPE
  5
E70
330
5
100
AcDbSymbolTableRecord
100
AcDbLinetypeTableRecord
  2
CENTER
 70
     0
  3
Center ____ _ ____ _ ____ _ ____ _ ____ _ ____
 72
    65
 73
     4
 40
50.8
 49
31.75
 74
     0
 49
-6.349999999999999
 74
     0
 49
6.349999999999999
 74
     0
 49
-6.349999999999999
 74
     0
  0
ENDTAB
  0
TABLE
  2
LAYER
  5
2
330
0
100
AcDbSymbolTable
 70
     2
  0
LAYER
  5
10
330
2
100
AcDbSymbolTableRecord
100
AcDbLayerTableRecord
  2
0
 70
     0
 62
     7
  6
Continuous
370
    -3
390
F
  0
LAYER
  5
40
330
2
100
AcDbSymbolTableRecord
100
AcDbLayerTableRecord
  2
Defpoints
 70
     0
 62
     7
  6
Continuous
290
     0
370
    -3
390
F
  0
ENDTAB
  0
TABLE
  2
STYLE
  5
3
330
0
100
AcDbSymbolTable
 70
     2
  0
STYLE
  5
11
330
3
100
AcDbSymbolTableRecord
100
AcDbTextStyleTableRecord
  2
Standard
 70
     0
 40
0.0
 41
1.0
 50
0.0
 71
     0
 42
2.5
  3
txt.shx
  4
@extfont2.shx
  0
STYLE
  5
E6F
330
3
100
AcDbSymbolTableRecord
100
AcDbTextStyleTableRecord
  2

 70
     1
 40
0.0
 41
1.0
 50
0.0
 71
     0
 42
2.5
  3
ltypeshp.shx
  4

  0
ENDTAB
  0
TABLE
  2
VIEW
  5
6
330
0
100
AcDbSymbolTable
 70
     0
  0
ENDTAB
  0
TABLE
  2
UCS
  5
7
330
0
100
AcDbSymbolTable
 70
     0
  0
ENDTAB
  0
TABLE
  2
APPID
  5
9
330
0
100
AcDbSymbolTable
 70
     1
  0
APPID
  5
12
330
9
100
AcDbSymbolTableRecord
100
AcDbRegAppTableRecord
  2
ACAD
 70
     0
  0
ENDTAB
  0
TABLE
  2
DIMSTYLE
  5
A
330
0
100
AcDbSymbolTable
 70
     1
100
AcDbDimStyleTable
 71
     1
340
27
  0
DIMSTYLE
105
27
102
{ACAD_REACTORS
330
182D
330
183A
330
1849
330
185A
330
1867
330
1871
102
}
330
A
100
AcDbSymbolTableRecord
100
AcDbDimStyleTableRecord
  2
ISO-25
 70
     0
 41
5.0
 42
5.0
 43
3.75
 44
1.25
 73
     0
 74
     0
 77
     1
 78
     8
140
7.0
141
2.5
143
0.03937007874016
147
3.0
171
     3
172
     1
176
     5
177
     5
178
     5
271
     2
272
     2
274
     3
283
     0
284
     8
340
11
  0
ENDTAB
  0
TABLE
  2
BLOCK_RECORD
  5
1
330
0
100
AcDbSymbolTable
 70
     7
  0
BLOCK_RECORD
  5
1F
102
{ACAD_XDICTIONARY
360
226
102
}
330
1
100
AcDbSymbolTableRecord
100
AcDbBlockTableRecord
  2
*Model_Space
340
22
  0
BLOCK_RECORD
  5
1B
330
1
100
AcDbSymbolTableRecord
100
AcDbBlockTableRecord
  2
*Paper_Space
340
1E
  0
BLOCK_RECORD
  5
23
330
1
100
AcDbSymbolTableRecord
100
AcDbBlockTableRecord
  2
*Paper_Space0
340
26
  0
BLOCK_RECORD
  5
182E
330
1
100
AcDbSymbolTableRecord
100
AcDbBlockTableRecord
  2
*D1
340
0
  0
BLOCK_RECORD
  5
183B
330
1
100
AcDbSymbolTableRecord
100
AcDbBlockTableRecord
  2
*D2
340
0
  0
BLOCK_RECORD
  5
184A
330
1
100
AcDbSymbolTableRecord
100
AcDbBlockTableRecord
  2
*D3
340
0
  0
BLOCK_RECORD
  5
185B
330
1
100
AcDbSymbolTableRecord
100
AcDbBlockTableRecord
  2
*D4
340
0
  0
BLOCK_RECORD
  5
1868
330
1
100
AcDbSymbolTableRecord
100
AcDbBlockTableRecord
  2
*D5
340
0
  0
BLOCK_RECORD
  5
1872
330
1
100
AcDbSymbolTableRecord
100
AcDbBlockTableRecord
  2
*D6
340
0
  0
ENDTAB
  0
ENDSEC
  0
SECTION
  2
BLOCKS
  0
BLOCK
  5
20
330
1F
100
AcDbEntity
  8
0
100
AcDbBlockBegin
  2
*Model_Space
 70
     0
 10
0.0
 20
0.0
 30
0.0
  3
*Model_Space
  1

  0
ENDBLK
  5
21
330
1F
100
AcDbEntity
  8
0
100
AcDbBlockEnd
  0
BLOCK
  5
1C
330
1B
100
AcDbEntity
 67
     1
  8
0
100
AcDbBlockBegin
  2
*Paper_Space
 70
     0
 10
0.0
 20
0.0
 30
0.0
  3
*Paper_Space
  1

  0
ENDBLK
  5
1D
330
1B
100
AcDbEntity
 67
     1
  8
0
100
AcDbBlockEnd
  0
BLOCK
  5
24
330
23
100
AcDbEntity
 67
     1
  8
0
100
AcDbBlockBegin
  2
*Paper_Space0
 70
     0
 10
0.0
 20
0.0
 30
0.0
  3
*Paper_Space0
  1

  0
ENDBLK
  5
25
330
23
100
AcDbEntity
 67
     1
  8
0
100
AcDbBlockEnd
  0
BLOCK
  5
1838
330
182E
100
AcDbEntity
  8
0
100
AcDbBlockBegin
  2
*D1
 70
     1
 10
0.0
 20
0.0
 30
0.0
  3
*D1
  1

  0
LINE
  5
182F
330
182E
100
AcDbEntity
  8
0
 62
     5
370
    -2
100
AcDbLine
 10
-20.49999999999999
 20
-9.208434826149186
 30
0.0
 11
-20.49999999999999
 21
-30.35703381857024
 31
0.0
  0
LINE
  5
1830
330
182E
100
AcDbEntity
  8
0
 62
     5
370
    -2
100
AcDbLine
 10
20.5
 20
-9.208434826149186
 30
0.0
 11
20.5
 21
-30.35703381857024
 31
0.0
  0
LINE
  5
1831
330
182E
100
AcDbEntity
  8
0
 62
     5
370
    -2
100
AcDbLine
 10
-15.49999999999999
 20
-29.10703381857024
 30
0.0
 11
15.5
 21
-29.10703381857024
 31
0.0
  0
SOLID
  5
1832
330
182E
100
AcDbEntity
  8
0
 62
     5
100
AcDbTrace
 10
-15.49999999999999
 20
-28.27370048523691
 30
0.0
 11
-15.49999999999999
 21
-29.94036715190358
 31
0.0
 12
-20.49999999999999
 22
-29.10703381857024
 32
0.0
 13
-20.49999999999999
 23
-29.10703381857024
 33
0.0
  0
SOLID
  5
1833
330
182E
100
AcDbEntity
  8
0
 62
     5
100
AcDbTrace
 10
15.5
 20
-28.27370048523691
 30
0.0
 11
15.5
 21
-29.94036715190358
 31
0.0
 12
20.5
 22
-29.10703381857024
 32
0.0
 13
20.5
 23
-29.10703381857024
 33
0.0
  0
MTEXT
  5
1834
330
182E
100
AcDbEntity
  8
0
 62
     5
100
AcDbMText
 10
0.000000000000004
 20
-22.60703381857025
 30
0.0
 40
7.0
 41
0.0
 71
     5
 72
     1
  1
41
 73
     1
 44
1.0
1001
ACAD
1000
MTEXTBEGIN
1070
    73
1070
     1
1070
    44
1040
1.0
1070
    74
1070
     0
1000
MTEXTEND
  0
POINT
  5
1835
330
182E
100
AcDbEntity
  8
Defpoints
 62
     0
100
AcDbPoint
 10
-20.49999999999999
 20
-4.208434826149186
 30
0.0
  0
POINT
  5
1836
330
182E
100
AcDbEntity
  8
Defpoints
 62
     0
100
AcDbPoint
 10
20.5
 20
-4.208434826149186
 30
0.0
  0
POINT
  5
1837
330
182E
100
AcDbEntity
  8
Defpoints
 62
     0
100
AcDbPoint
 10
20.5
 20
-29.10703381857024
 30
0.0
  0
ENDBLK
  5
1839
330
182E
100
AcDbEntity
  8
0
100
AcDbBlockEnd
  0
BLOCK
  5
1847
330
183B
100
AcDbEntity
  8
0
100
AcDbBlockBegin
  2
*D2
 70
     1
 10
0.0
 20
0.0
 30
0.0
  3
*D2
  1

  0
LINE
  5
183C
330
183B
100
AcDbEntity
  8
0
 62
     5
370
    -2
100
AcDbLine
 10
-17.49999999999999
 20
-5.000000000000001
 30
0.0
 11
-17.49999999999999
 21
-18.32285811743156
 31
0.0
  0
LINE
  5
183D
330
183B
100
AcDbEntity
  8
0
 62
     5
370
    -2
100
AcDbLine
 10
-23.49999999999999
 20
-5.000000000000001
 30
0.0
 11
-23.49999999999999
 21
-18.32285811743156
 31
0.0
  0
LINE
  5
183E
330
183B
100
AcDbEntity
  8
0
 62
     5
370
    -2
100
AcDbLine
 10
-12.49999999999999
 20
-17.07285811743156
 30
0.0
 11
-7.499999999999992
 21
-17.07285811743156
 31
0.0
  0
LINE
  5
183F
330
183B
100
AcDbEntity
  8
0
 62
     5
370
    -2
100
AcDbLine
 10
-28.49999999999999
 20
-17.07285811743156
 30
0.0
 11
-44.16666666666665
 21
-17.07285811743156
 31
0.0
  0
LINE
  5
1840
330
183B
100
AcDbEntity
  8
0
 62
     5
370
    -2
100
AcDbLine
 10
-17.49999999999999
 20
-17.07285811743156
 30
0.0
 11
-23.49999999999999
 21
-17.07285811743156
 31
0.0
  0
SOLID
  5
1841
330
183B
100
AcDbEntity
  8
0
 62
     5
100
AcDbTrace
 10
-12.49999999999999
 20
-16.23952478409823
 30
0.0
 11
-12.49999999999999
 21
-17.9061914507649
 31
0.0
 12
-17.49999999999999
 22
-17.07285811743156
 32
0.0
 13
-17.49999999999999
 23
-17.07285811743156
 33
0.0
  0
SOLID
  5
1842
330
183B
100
AcDbEntity
  8
0
 62
     5
100
AcDbTrace
 10
-28.49999999999999
 20
-16.23952478409823
 30
0.0
 11
-28.49999999999999
 21
-17.9061914507649
 31
0.0
 12
-23.49999999999999
 22
-17.07285811743156
 32
0.0
 13
-23.49999999999999
 23
-17.07285811743156
 33
0.0
  0
MTEXT
  5
1843
330
183B
100
AcDbEntity
  8
0
 62
     5
100
AcDbMText
 10
-38.83333333333332
 20
-10.57285811743156
 30
0.0
 40
7.0
 41
0.0
 71
     5
 72
     1
  1
6
 73
     1
 44
1.0
1001
ACAD
1000
MTEXTBEGIN
1070
    73
1070
     1
1070
    44
1040
1.0
1070
    74
1070
     0
1000
MTEXTEND
  0
POINT
  5
1844
330
183B
100
AcDbEntity
  8
Defpoints
 62
     0
100
AcDbPoint
 10
-17.49999999999999
 20
-0.0000000000000017
 30
0.0
  0
POINT
  5
1845
330
183B
100
AcDbEntity
  8
Defpoints
 62
     0
100
AcDbPoint
 10
-23.49999999999999
 20
-0.0000000000000015
 30
0.0
  0
POINT
  5
1846
330
183B
100
AcDbEntity
  8
Defpoints
 62
     0
100
AcDbPoint
 10
-23.49999999999999
 20
-17.07285811743156
 30
0.0
  0
ENDBLK
  5
1848
330
183B
100
AcDbEntity
  8
0
100
AcDbBlockEnd
  0
BLOCK
  5
1856
330
184A
100
AcDbEntity
  8
0
100
AcDbBlockBegin
  2
*D3
 70
     1
 10
0.0
 20
0.0
 30
0.0
  3
*D3
  1

  0
LINE
  5
184B
330
184A
100
AcDbEntity
  8
0
 62
     5
370
    -2
100
AcDbLine
 10
17.5
 20
-5.000000000000002
 30
0.0
 11
17.5
 21
-17.99760957226567
 31
0.0
  0
LINE
  5
184C
330
184A
100
AcDbEntity
  8
0
 62
     5
370
    -2
100
AcDbLine
 10
23.5
 20
-5.000000000000002
 30
0.0
 11
23.5
 21
-17.99760957226567
 31
0.0
  0
LINE
  5
184D
330
184A
100
AcDbEntity
  8
0
 62
     5
370
    -2
100
AcDbLine
 10
12.5
 20
-16.74760957226567
 30
0.0
 11
7.500000000000003
 21
-16.74760957226567
 31
0.0
  0
LINE
  5
184E
330
184A
100
AcDbEntity
  8
0
 62
     5
370
    -2
100
AcDbLine
 10
28.5
 20
-16.74760957226567
 30
0.0
 11
44.16666666666666
 21
-16.74760957226567
 31
0.0
  0
LINE
  5
184F
330
184A
100
AcDbEntity
  8
0
 62
     5
370
    -2
100
AcDbLine
 10
17.5
 20
-16.74760957226567
 30
0.0
 11
23.5
 21
-16.74760957226567
 31
0.0
  0
SOLID
  5
1850
330
184A
100
AcDbEntity
  8
0
 62
     5
100
AcDbTrace
 10
12.5
 20
-15.91427623893234
 30
0.0
 11
12.5
 21
-17.580942905599
 31
0.0
 12
17.5
 22
-16.74760957226567
 32
0.0
 13
17.5
 23
-16.74760957226567
 33
0.0
  0
SOLID
  5
1851
330
184A
100
AcDbEntity
  8
0
 62
     5
100
AcDbTrace
 10
28.5
 20
-15.91427623893234
 30
0.0
 11
28.5
 21
-17.580942905599
 31
0.0
 12
23.5
 22
-16.74760957226567
 32
0.0
 13
23.5
 23
-16.74760957226567
 33
0.0
  0
MTEXT
  5
1852
330
184A
100
AcDbEntity
  8
0
 62
     5
100
AcDbMText
 10
38.83333333333333
 20
-10.24760957226567
 30
0.0
 40
7.0
 41
0.0
 71
     5
 72
     1
  1
6
 73
     1
 44
1.0
1001
ACAD
1000
MTEXTBEGIN
1070
    73
1070
     1
1070
    44
1040
1.0
1070
    74
1070
     0
1000
MTEXTEND
  0
POINT
  5
1853
330
184A
100
AcDbEntity
  8
Defpoints
 62
     0
100
AcDbPoint
 10
17.5
 20
-0.0000000000000028
 30
0.0
  0
POINT
  5
1854
330
184A
100
AcDbEntity
  8
Defpoints
 62
     0
100
AcDbPoint
 10
23.5
 20
-0.000000000000003
 30
0.0
  0
POINT
  5
1855
330
184A
100
AcDbEntity
  8
Defpoints
 62
     0
100
AcDbPoint
 10
23.5
 20
-16.74760957226567
 30
0.0
  0
ENDBLK
  5
1857
330
184A
100
AcDbEntity
  8
0
100
AcDbBlockEnd
  0
BLOCK
  5
1865
330
185B
100
AcDbEntity
  8
0
100
AcDbBlockBegin
  2
*D4
 70
     1
 10
0.0
 20
0.0
 30
0.0
  3
*D4
  1

  0
LINE
  5
187E
330
185B
100
AcDbEntity
  8
0
 62
     5
370
    -2
100
AcDbLine
 10
-4.999999999999993
 20
49.0
 30
0.0
 11
-53.1608783979916
 21
49.00000000000002
 31
0.0
  0
LINE
  5
187F
330
185B
100
AcDbEntity
  8
0
 62
     5
370
    -2
100
AcDbLine
 10
-28.49999999999999
 20
-0.0000000000000001
 30
0.0
 11
-53.16087839799162
 21
0.0000000000000069
 31
0.0
  0
LINE
  5
1880
330
185B
100
AcDbEntity
  8
0
 62
     5
370
    -2
100
AcDbLine
 10
-51.91087839799161
 20
44.00000000000001
 30
0.0
 11
-51.91087839799162
 21
5.000000000000006
 31
0.0
  0
SOLID
  5
1881
330
185B
100
AcDbEntity
  8
0
 62
     5
100
AcDbTrace
 10
-52.74421173132495
 20
44.00000000000001
 30
0.0
 11
-51.07754506465827
 21
44.00000000000001
 31
0.0
 12
-51.9108783979916
 22
49.00000000000002
 32
0.0
 13
-51.9108783979916
 23
49.00000000000002
 33
0.0
  0
SOLID
  5
1882
330
185B
100
AcDbEntity
  8
0
 62
     5
100
AcDbTrace
 10
-52.74421173132495
 20
5.000000000000006
 30
0.0
 11
-51.07754506465828
 21
5.000000000000006
 31
0.0
 12
-51.91087839799162
 22
0.0000000000000066
 32
0.0
 13
-51.91087839799162
 23
0.0000000000000066
 33
0.0
  0
MTEXT
  5
1883
330
185B
100
AcDbEntity
  8
0
 62
     5
100
AcDbMText
 10
-58.41087839799161
 20
24.5
 30
0.0
 40
7.0
 41
0.0
 71
     5
 72
     1
  1
49
 11
0.0000000000000001
 21
1.0
 31
0.0
 73
     1
 44
1.0
1001
ACAD
1000
MTEXTBEGIN
1070
    73
1070
     1
1070
    44
1040
1.0
1070
    74
1070
     0
1000
MTEXTEND
  0
POINT
  5
1884
330
185B
100
AcDbEntity
  8
Defpoints
 62
     0
100
AcDbPoint
 10
0.0000000000000069
 20
49.0
 30
0.0
  0
POINT
  5
1885
330
185B
100
AcDbEntity
  8
Defpoints
 62
     0
100
AcDbPoint
 10
-23.49999999999999
 20
-0.0000000000000015
 30
0.0
  0
POINT
  5
1886
330
185B
100
AcDbEntity
  8
Defpoints
 62
     0
100
AcDbPoint
 10
-51.91087839799162
 20
0.0000000000000066
 30
0.0
  0
ENDBLK
  5
1866
330
185B
100
AcDbEntity
  8
0
100
AcDbBlockEnd
  0
BLOCK
  5
186F
330
1868
100
AcDbEntity
  8
0
100
AcDbBlockBegin
  2
*D5
 70
     1
 10
0.0
 20
0.0
 30
0.0
  3
*D5
  1

  0
LINE
  5
1869
330
1868
100
AcDbEntity
  8
0
 62
     5
370
    -2
100
AcDbLine
 10
35.2762097161974
 20
66.9031122955003
 30
0.0
 11
16.11959251932199
 21
47.40605793635444
 31
0.0
  0
MTEXT
  5
186A
330
1868
100
AcDbEntity
  8
0
 62
     5
100
AcDbMText
 10
22.81353610523799
 20
63.49338929925255
 30
0.0
 40
7.0
 41
0.0
 71
     5
 72
     1
  1
R18
 11
0.7008518486661738
 21
0.7133068667980192
 31
0.0
 73
     1
 44
1.0
1001
ACAD
1000
MTEXTBEGIN
1070
    73
1070
     1
1070
    44
1040
1.0
1070
    74
1070
     0
1000
MTEXTEND
  0
LINE
  5
186B
330
1868
100
AcDbEntity
  8
0
 62
     5
370
    -2
100
AcDbLine
 10
0.0000000000000089
 20
31.00000000000003
 30
0.0
 11
12.61533327599111
 21
43.83952360236435
 31
0.0
  0
SOLID
  5
186C
330
1868
100
AcDbEntity
  8
0
 62
     5
100
AcDbTrace
 10
15.52517013032364
 20
47.99010114357625
 30
0.0
 11
16.71401490832034
 21
46.82201472913263
 31
0.0
 12
12.61533327599111
 22
43.83952360236435
 32
0.0
 13
12.61533327599111
 23
43.83952360236435
 33
0.0
  0
POINT
  5
186D
330
1868
100
AcDbEntity
  8
Defpoints
 62
     0
100
AcDbPoint
 10
12.61533327599111
 20
43.83952360236435
 30
0.0
  0
POINT
  5
186E
330
1868
100
AcDbEntity
  8
Defpoints
 62
     0
100
AcDbPoint
 10
0.0000000000000089
 20
31.00000000000003
 30
0.0
  0
ENDBLK
  5
1870
330
1868
100
AcDbEntity
  8
0
100
AcDbBlockEnd
  0
BLOCK
  5
187C
330
1872
100
AcDbEntity
  8
0
100
AcDbBlockBegin
  2
*D6
 70
     1
 10
0.0
 20
0.0
 30
0.0
  3
*D6
  1

  0
LINE
  5
1873
330
1872
100
AcDbEntity
  8
0
 62
     5
370
    -2
100
AcDbLine
 10
-28.49999999999999
 20
-0.0000000000000001
 30
0.0
 11
-37.21219231615283
 21
0.0000000000000024
 31
0.0
  0
LINE
  5
1874
330
1872
100
AcDbEntity
  8
0
 62
     5
370
    -2
100
AcDbLine
 10
-28.5
 20
25.0
 30
0.0
 11
-37.21219231615282
 21
25.0
 31
0.0
  0
LINE
  5
1875
330
1872
100
AcDbEntity
  8
0
 62
     5
370
    -2
100
AcDbLine
 10
-35.96219231615283
 20
5.000000000000001
 30
0.0
 11
-35.96219231615282
 21
20.0
 31
0.0
  0
SOLID
  5
1876
330
1872
100
AcDbEntity
  8
0
 62
     5
100
AcDbTrace
 10
-36.79552564948616
 20
5.000000000000001
 30
0.0
 11
-35.12885898281949
 21
5.000000000000001
 31
0.0
 12
-35.96219231615283
 22
0.000000000000002
 32
0.0
 13
-35.96219231615283
 23
0.000000000000002
 33
0.0
  0
SOLID
  5
1877
330
1872
100
AcDbEntity
  8
0
 62
     5
100
AcDbTrace
 10
-36.79552564948615
 20
20.0
 30
0.0
 11
-35.12885898281948
 21
20.0
 31
0.0
 12
-35.96219231615282
 22
25.0
 32
0.0
 13
-35.96219231615282
 23
25.0
 33
0.0
  0
MTEXT
  5
1878
330
1872
100
AcDbEntity
  8
0
 62
     5
100
AcDbMText
 10
-42.46219231615282
 20
12.5
 30
0.0
 40
7.0
 41
0.0
 71
     5
 72
     1
  1
25
 11
0.0000000000000001
 21
1.0
 31
0.0
 73
     1
 44
1.0
1001
ACAD
1000
MTEXTBEGIN
1070
    73
1070
     1
1070
    44
1040
1.0
1070
    74
1070
     0
1000
MTEXTEND
  0
POINT
  5
1879
330
1872
100
AcDbEntity
  8
Defpoints
 62
     0
100
AcDbPoint
 10
-23.49999999999999
 20
-0.0000000000000015
 30
0.0
  0
POINT
  5
187A
330
1872
100
AcDbEntity
  8
Defpoints
 62
     0
100
AcDbPoint
 10
-23.49999999999999
 20
25.0
 30
0.0
  0
POINT
  5
187B
330
1872
100
AcDbEntity
  8
Defpoints
 62
     0
100
AcDbPoint
 10
-35.96219231615282
 20
25.0
 30
0.0
  0
ENDBLK
  5
187D
330
1872
100
AcDbEntity
  8
0
100
AcDbBlockEnd
  0
ENDSEC
  0
SECTION
  2
ENTITIES
  0
TEXT
  5
6A
330
1F
100
AcDbEntity
  8
0
100
AcDbText
 10
-51.22627369568533
 20
-68.46774544020309
 30
0.0
 40
20.0
  1
M6 25A
100
AcDbText
  0
LINE
  5
C9A
330
1F
100
AcDbEntity
  8
0
100
AcDbLine
 10
-23.49999999999999
 20
-0.0000000000000015
 30
0.0
 11
-17.49999999999999
 21
-0.0000000000000017
 31
0.0
  0
LINE
  5
E0A
330
1F
100
AcDbEntity
  8
0
  6
CENTER
 62
     1
 48
0.5
100
AcDbLine
 10
0.0000000000000058
 20
-13.39345985534339
 30
0.0
 11
0.0000000000000073
 21
70.21098027721416
 31
0.0
  0
LINE
  5
1813
330
1F
100
AcDbEntity
  8
0
  6
CENTER
 62
     1
 48
0.5
100
AcDbLine
 10
-20.49999999999999
 20
-4.208434826149186
 30
0.0
 11
-20.49999999999999
 21
35.55521678957218
 31
0.0
  0
LINE
  5
1814
330
1F
100
AcDbEntity
  8
0
  6
CENTER
 62
     1
 48
0.5
100
AcDbLine
 10
20.5
 20
-4.208434826149186
 30
0.0
 11
20.5
 21
35.55521678957217
 31
0.0
  0
LINE
  5
1815
330
1F
100
AcDbEntity
  8
0
100
AcDbLine
 10
23.5
 20
-0.000000000000003
 30
0.0
 11
23.5
 21
35.87339717240452
 31
0.0
  0
LINE
  5
1816
330
1F
100
AcDbEntity
  8
0
100
AcDbLine
 10
17.5
 20
-0.0000000000000028
 30
0.0
 11
17.5
 21
35.2130748865882
 31
0.0
  0
LINE
  5
1817
330
1F
100
AcDbEntity
  8
0
100
AcDbLine
 10
-17.49999999999999
 20
-0.0000000000000017
 30
0.0
 11
-17.49999999999999
 21
35.21307488658819
 31
0.0
  0
LINE
  5
1818
330
1F
100
AcDbEntity
  8
0
100
AcDbLine
 10
-23.49999999999999
 20
-0.0000000000000015
 30
0.0
 11
-23.49999999999999
 21
35.8733971724045
 31
0.0
  0
LINE
  5
1820
330
1F
100
AcDbEntity
  8
0
  6
CENTER
 62
     1
 48
0.5
100
AcDbLine
 10
-33.41152783864095
 20
31.0
 30
0.0
 11
32.35332194489092
 21
30.99999999999999
 31
0.0
  0
ARC
  5
1824
330
1F
100
AcDbEntity
  8
0
100
AcDbCircle
 10
0.0000000000000066
 20
31.0
 30
0.0
 40
18.0
100
AcDbArc
 50
13.5362027373812
 51
166.4637972626188
  0
ARC
  5
1825
330
1F
100
AcDbEntity
  8
0
  6
CENTER
 62
     1
 48
0.5
100
AcDbCircle
 10
0.0000000000000066
 20
31.0
 30
0.0
 40
21.0
100
AcDbArc
 50
12.5279054398545
 51
167.4720945601455
  0
ARC
  5
1826
330
1F
100
AcDbEntity
  8
0
100
AcDbCircle
 10
0.0000000000000066
 20
31.0
 30
0.0
 40
24.0
100
AcDbArc
 50
11.71585239489245
 51
168.2841476051076
  0
LINE
  5
182B
330
1F
100
AcDbEntity
  8
0
100
AcDbLine
 10
17.5
 20
-0.0000000000000028
 30
0.0
 11
23.5
 21
-0.000000000000003
 31
0.0
  0
DIMENSION
  5
182D
330
1F
100
AcDbEntity
  8
0
100
AcDbDimension
  2
*D1
 10
20.5
 20
-29.10703381857024
 30
0.0
 11
0.000000000000004
 21
-22.60703381857025
 31
0.0
 70
    32
 71
     5
 42
40.99999999999998
  3
ISO-25
100
AcDbAlignedDimension
 13
-20.49999999999999
 23
-4.208434826149186
 33
0.0
 14
20.5
 24
-4.208434826149186
 34
0.0
100
AcDbRotatedDimension
  0
DIMENSION
  5
183A
330
1F
100
AcDbEntity
  8
0
100
AcDbDimension
  2
*D2
 10
-23.49999999999999
 20
-17.07285811743156
 30
0.0
 11
-38.83333333333332
 21
-10.57285811743156
 31
0.0
 70
    32
 71
     5
 42
5.999999999999996
  3
ISO-25
100
AcDbAlignedDimension
 13
-17.49999999999999
 23
-0.0000000000000017
 33
0.0
 14
-23.49999999999999
 24
-0.0000000000000015
 34
0.0
100
AcDbRotatedDimension
  0
DIMENSION
  5
1849
330
1F
100
AcDbEntity
  8
0
100
AcDbDimension
  2
*D3
 10
23.5
 20
-16.74760957226567
 30
0.0
 11
38.83333333333333
 21
-10.24760957226567
 31
0.0
 70
    32
 71
     5
 42
5.999999999999996
  3
ISO-25
100
AcDbAlignedDimension
 13
17.5
 23
-0.0000000000000028
 33
0.0
 14
23.5
 24
-0.000000000000003
 34
0.0
100
AcDbRotatedDimension
  0
LINE
  5
1858
330
1F
100
AcDbEntity
  8
0
100
AcDbLine
 10
17.5
 20
25.0
 30
0.0
 11
23.5
 21
25.0
 31
0.0
  0
LINE
  5
1859
330
1F
100
AcDbEntity
  8
0
100
AcDbLine
 10
-23.49999999999999
 20
25.0
 30
0.0
 11
-17.49999999999999
 21
25.0
 31
0.0
  0
DIMENSION
  5
185A
330
1F
100
AcDbEntity
  8
0
100
AcDbDimension
  2
*D4
 10
-51.91087839799162
 20
0.0000000000000066
 30
0.0
 11
-58.41087839799161
 21
24.5
 31
0.0
 70
    32
 71
     5
 42
49.00000000000001
  3
ISO-25
100
AcDbAlignedDimension
 13
0.0000000000000069
 23
49.0
 33
0.0
 14
-23.49999999999999
 24
-0.0000000000000015
 34
0.0
 50
90.0
100
AcDbRotatedDimension
  0
DIMENSION
  5
1867
330
1F
100
AcDbEntity
  8
0
100
AcDbDimension
  2
*D5
 10
0.0000000000000089
 20
31.00000000000003
 30
0.0
 11
27.45003073942512
 21
58.93785228292242
 31
0.0
 70
    36
 71
     5
 42
17.99999999999997
  3
ISO-25
100
AcDbRadialDimension
 15
12.61533327599111
 25
43.83952360236435
 35
0.0
 40
0.0
1001
ACAD
1000
DSTYLE
1002
{
1070
   288
1070
     1
1002
}
  0
DIMENSION
  5
1871
330
1F
100
AcDbEntity
  8
0
100
AcDbDimension
  2
*D6
 10
-35.96219231615282
 20
25.0
 30
0.0
 11
-42.46219231615282
 21
12.5
 31
0.0
 70
    32
 71
     5
 42
25.0
  3
ISO-25
100
AcDbAlignedDimension
 13
-23.49999999999999
 23
-0.0000000000000015
 33
0.0
 14
-23.49999999999999
 24
25.0
 34
0.0
 50
90.0
100
AcDbRotatedDimension
  0
ENDSEC
  0
SECTION
  2
OBJECTS
  0
DICTIONARY
  5
C
330
0
100
AcDbDictionary
281
     1
  3
ACAD_COLOR
350
201
  3
ACAD_GROUP
350
D
  3
ACAD_LAYOUT
350
1A
  3
ACAD_MATERIAL
350
1EC
  3
ACAD_MLINESTYLE
350
17
  3
ACAD_PLOTSETTINGS
350
19
  3
ACAD_PLOTSTYLENAME
350
E
  3
ACAD_TABLESTYLE
350
202
  3
ACAD_VISUALSTYLE
350
1F0
  3
AcDbVariableDictionary
350
21D
  3
DWGPROPS
350
18CC
  0
DICTIONARY
  5
207
330
8
100
AcDbDictionary
280
     1
281
     1
  0
DICTIONARY
  5
226
330
1F
100
AcDbDictionary
280
     1
281
     1
  3
ACAD_SORTENTS
360
227
  0
DICTIONARY
  5
201
102
{ACAD_REACTORS
330
C
102
}
330
C
100
AcDbDictionary
281
     1
  0
DICTIONARY
  5
D
102
{ACAD_REACTORS
330
C
102
}
330
C
100
AcDbDictionary
281
     1
  0
DICTIONARY
  5
1A
102
{ACAD_REACTORS
330
C
102
}
330
C
100
AcDbDictionary
281
     1
  3
Model
350
22
  3
ﾚｲｱｳﾄ1
350
1E
  3
ﾚｲｱｳﾄ2
350
26
  0
DICTIONARY
  5
1EC
102
{ACAD_REACTORS
330
C
102
}
330
C
100
AcDbDictionary
281
     1
  3
ByBlock
350
1EE
  3
ByLayer
350
1ED
  3
Global
350
1EF
  0
DICTIONARY
  5
17
102
{ACAD_REACTORS
330
C
102
}
330
C
100
AcDbDictionary
281
     1
  3
Standard
350
18
  0
DICTIONARY
  5
19
102
{ACAD_REACTORS
330
C
102
}
330
C
100
AcDbDictionary
281
     1
  0
ACDBDICTIONARYWDFLT
  5
E
102
{ACAD_REACTORS
330
C
102
}
330
C
100
AcDbDictionary
281
     1
  3
Normal
350
F
100
AcDbDictionaryWithDefault
340
F
  0
DICTIONARY
  5
202
102
{ACAD_REACTORS
330
C
102
}
330
C
100
AcDbDictionary
281
     1
  3
Standard
350
203
  0
DICTIONARY
  5
1F0
102
{ACAD_REACTORS
330
C
102
}
330
C
100
AcDbDictionary
281
     1
  3
2dWireframe
350
1F6
  3
3D Hidden
350
1F8
  3
3dWireframe
350
1F7
  3
Basic
350
1F5
  3
Brighten
350
1FC
  3
ColorChange
350
200
  3
Conceptual
350
1F9
  3
Dim
350
1FB
  3
Facepattern
350
1FF
  3
Flat
350
1F1
  3
FlatWithEdges
350
1F2
  3
Gouraud
350
1F3
  3
GouraudWithEdges
350
1F4
  3
Linepattern
350
1FE
  3
Realistic
350
1FA
  3
Thicken
350
1FD
  0
DICTIONARY
  5
21D
102
{ACAD_REACTORS
330
C
102
}
330
C
100
AcDbDictionary
281
     1
  3
CTABLESTYLE
350
21E
  3
DIMASSOC
350
221
  3
INDEXCTL
350
220
  3
SORTENTS
350
21F
  0
XRECORD
  5
18CC
102
{ACAD_REACTORS
330
C
102
}
330
C
100
AcDbXrecord
280
     1
  1
DWGPROPS COOKIE
  2

  3

  4

  6

  7

  8
K-takayama
  9

300
=
301
=
302
=
303
=
304
=
305
=
306
=
307
=
308
=
309
=
 40
0.2833774768518518
 41
2457229.701635197
 42
2457276.641014398
  1

 90
        0
  0
SORTENTSTABLE
  5
227
102
{ACAD_REACTORS
330
226
102
}
330
226
100
AcDbSortentsTable
330
1F
331
1816
  5
181B
331
1815
  5
1820
331
183A
  5
1858
331
1814
  5
181A
331
1826
  5
183A
331
1825
  5
182D
331
1813
  5
1824
331
1824
  5
182B
331
1849
  5
1859
331
1859
  5
1619
331
E0A
  5
175A
331
1858
  5
1734
331
1820
  5
1759
331
182D
  5
1849
331
C9A
  5
DFD
331
182B
  5
1733
331
6A
  5
DFB
331
1818
  5
1825
331
1817
  5
1826
  0
LAYOUT
  5
22
102
{ACAD_XDICTIONARY
360
18CF
102
}
102
{ACAD_REACTORS
330
1A
102
}
330
1A
100
AcDbPlotSettings
  1

  2
Brother MFC-6490CN Printer
  4
A4
  6

 40
3.757083177566528
 41
3.757076978683471
 42
3.841751098632812
 43
3.757080078125
 44
209.9733276367187
 45
296.9259948730469
 46
0.0
 47
0.0
 48
-58.88033042056213
 49
-57.16587690686214
140
139.865017879488
141
149.7259694196451
142
1.0
143
1.022321750587118
 70
 11952
 72
     1
 73
     1
 74
     4
  7
monochrome.ctb
 75
     0
147
0.9781656307573436
148
58.88033042056213
149
57.16587690686214
100
AcDbLayout
  1
Model
 70
     1
 71
     0
 10
0.0
 20
0.0
 11
12.0
 21
9.0
 12
0.0
 22
0.0
 32
0.0
 14
0.0
 24
0.0
 34
0.0
 15
0.0
 25
0.0
 35
0.0
146
0.0
 13
0.0
 23
0.0
 33
0.0
 16
1.0
 26
0.0
 36
0.0
 17
0.0
 27
1.0
 37
0.0
 76
     0
330
1F
331
1EA
  0
LAYOUT
  5
1E
102
{ACAD_XDICTIONARY
360
18CD
102
}
102
{ACAD_REACTORS
330
1A
102
}
330
1A
100
AcDbPlotSettings
  1

  2
Microsoft Office Document Image Writer
  4

  6

 40
0.0
 41
0.0
 42
0.0
 43
0.0
 44
0.0
 45
0.0
 46
0.0
 47
0.0
 48
0.0
 49
0.0
140
0.0
141
0.0
142
1.0
143
1.0
 70
   688
 72
     0
 73
     0
 74
     5
  7
monochrome.ctb
 75
    16
147
1.0
148
0.0
149
0.0
100
AcDbLayout
  1
ﾚｲｱｳﾄ1
 70
     1
 71
     1
 10
0.0
 20
0.0
 11
420.0
 21
297.0
 12
0.0
 22
0.0
 32
0.0
 14
1.000000000000000E+20
 24
1.000000000000000E+20
 34
1.000000000000000E+20
 15
-1.000000000000000E+20
 25
-1.000000000000000E+20
 35
-1.000000000000000E+20
146
0.0
 13
0.0
 23
0.0
 33
0.0
 16
1.0
 26
0.0
 36
0.0
 17
0.0
 27
1.0
 37
0.0
 76
     0
330
1B
  0
LAYOUT
  5
26
102
{ACAD_XDICTIONARY
360
18D1
102
}
102
{ACAD_REACTORS
330
1A
102
}
330
1A
100
AcDbPlotSettings
  1

  2
Microsoft Office Document Image Writer
  4

  6

 40
0.0
 41
0.0
 42
0.0
 43
0.0
 44
0.0
 45
0.0
 46
0.0
 47
0.0
 48
0.0
 49
0.0
140
0.0
141
0.0
142
1.0
143
1.0
 70
   688
 72
     0
 73
     0
 74
     5
  7
monochrome.ctb
 75
    16
147
1.0
148
0.0
149
0.0
100
AcDbLayout
  1
ﾚｲｱｳﾄ2
 70
     1
 71
     2
 10
0.0
 20
0.0
 11
12.0
 21
9.0
 12
0.0
 22
0.0
 32
0.0
 14
0.0
 24
0.0
 34
0.0
 15
0.0
 25
0.0
 35
0.0
146
0.0
 13
0.0
 23
0.0
 33
0.0
 16
1.0
 26
0.0
 36
0.0
 17
0.0
 27
1.0
 37
0.0
 76
     0
330
23
  0
MATERIAL
  5
1EE
102
{ACAD_XDICTIONARY
360
18D5
102
}
102
{ACAD_REACTORS
330
1EC
102
}
330
1EC
100
AcDbMaterial
  1
ByBlock
  0
MATERIAL
  5
1ED
102
{ACAD_XDICTIONARY
360
18D3
102
}
102
{ACAD_REACTORS
330
1EC
102
}
330
1EC
100
AcDbMaterial
  1
ByLayer
  0
MATERIAL
  5
1EF
102
{ACAD_XDICTIONARY
360
18D7
102
}
102
{ACAD_REACTORS
330
1EC
102
}
330
1EC
100
AcDbMaterial
  1
Global
  0
MLINESTYLE
  5
18
102
{ACAD_REACTORS
330
17
102
}
330
17
100
AcDbMlineStyle
  2
STANDARD
 70
     0
  3

 62
   256
 51
90.0
 52
90.0
 71
     2
 49
0.5
 62
   256
  6
BYLAYER
 49
-0.5
 62
   256
  6
BYLAYER
  0
ACDBPLACEHOLDER
  5
F
102
{ACAD_REACTORS
330
E
102
}
330
E
  0
TABLESTYLE
  5
203
102
{ACAD_XDICTIONARY
360
18D9
102
}
102
{ACAD_REACTORS
330
202
102
}
330
202
100
AcDbTableStyle
  3
Standard
 70
     0
 71
     0
 40
1.5
 41
1.5
280
     0
281
     0
  7
Standard
140
4.5
170
     2
 62
     0
 63
     7
283
     0
274
    -2
284
     1
 64
     0
275
    -2
285
     1
 65
     0
276
    -2
286
     1
 66
     0
277
    -2
287
     1
 67
     0
278
    -2
288
     1
 68
     0
279
    -2
289
     1
 69
     0
  7
Standard
140
6.0
170
     5
 62
     0
 63
     7
283
     0
274
    -2
284
     1
 64
     0
275
    -2
285
     1
 65
     0
276
    -2
286
     1
 66
     0
277
    -2
287
     1
 67
     0
278
    -2
288
     1
 68
     0
279
    -2
289
     1
 69
     0
  7
Standard
140
4.5
170
     5
 62
     0
 63
     7
283
     0
274
    -2
284
     1
 64
     0
275
    -2
285
     1
 65
     0
276
    -2
286
     1
 66
     0
277
    -2
287
     1
 67
     0
278
    -2
288
     1
 68
     0
279
    -2
289
     1
 69
     0
  0
VISUALSTYLE
  5
1F6
102
{ACAD_REACTORS
330
1F0
102
}
330
1F0
100
AcDbVisualStyle
  2
2dWireframe
 70
     4
 71
     0
 72
     2
 73
     0
 90
        0
 40
-0.6
 41
-30.0
 62
     5
 63
     7
 74
     1
 91
        4
 64
     7
 65
   257
 75
     1
175
     1
 42
1.0
 92
        0
 66
   257
 43
1.0
 76
     1
 77
     6
 78
     2
 67
     7
 79
     5
170
     0
171
     0
290
     0
174
     0
 93
        1
 44
0.0
173
     0
291
     0
 45
0.0
1001
ACAD
1000
AcDbSavedByObjectVersion
1070
     0
  0
VISUALSTYLE
  5
1F8
102
{ACAD_REACTORS
330
1F0
102
}
330
1F0
100
AcDbVisualStyle
  2
3D Hidden
 70
     6
 71
     1
 72
     2
 73
     2
 90
        0
 40
-0.6
 41
-30.0
 62
     5
 63
     7
 74
     2
 91
        2
 64
     7
 65
   257
 75
     2
175
     1
 42
40.0
 92
        0
 66
   257
 43
1.0
 76
     1
 77
     6
 78
     2
 67
     7
 79
     3
170
     0
171
     0
290
     0
174
     0
 93
        1
 44
0.0
173
     0
291
     0
 45
0.0
1001
ACAD
1000
AcDbSavedByObjectVersion
1070
     0
  0
VISUALSTYLE
  5
1F7
102
{ACAD_REACTORS
330
1F0
102
}
330
1F0
100
AcDbVisualStyle
  2
3dWireframe
 70
     5
 71
     0
 72
     2
 73
     0
 90
        0
 40
-0.6
 41
-30.0
 62
     5
 63
     7
 74
     1
 91
        4
 64
     7
 65
   257
 75
     1
175
     1
 42
1.0
 92
        0
 66
   257
 43
1.0
 76
     1
 77
     6
 78
     2
 67
     7
 79
     5
170
     0
171
     0
290
     0
174
     0
 93
        1
 44
0.0
173
     0
291
     0
 45
0.0
1001
ACAD
1000
AcDbSavedByObjectVersion
1070
     0
  0
VISUALSTYLE
  5
1F5
102
{ACAD_REACTORS
330
1F0
102
}
330
1F0
100
AcDbVisualStyle
  2
Basic
 70
     7
 71
     1
 72
     0
 73
     1
 90
        0
 40
-0.6
 41
-30.0
 62
     5
 63
     7
 74
     0
 91
        4
 64
     7
 65
   257
 75
     1
175
     1
 42
1.0
 92
        8
 66
     7
 43
1.0
 76
     1
 77
     6
 78
     2
 67
     7
 79
     5
170
     0
171
     0
290
     0
174
     0
 93
        1
 44
0.0
173
     0
291
     1
 45
0.0
1001
ACAD
1000
AcDbSavedByObjectVersion
1070
     0
  0
VISUALSTYLE
  5
1FC
102
{ACAD_REACTORS
330
1F0
102
}
330
1F0
100
AcDbVisualStyle
  2
Brighten
 70
    12
 71
     2
 72
     2
 73
     0
 90
        0
 40
-0.6
 41
-30.0
 62
     5
 63
     7
 74
     1
 91
        4
 64
     7
 65
   257
 75
     1
175
     1
 42
1.0
 92
        8
 66
     7
 43
1.0
 76
     1
 77
     6
 78
     2
 67
     7
 79
     5
170
     0
171
     0
290
     0
174
     0
 93
        1
 44
50.0
173
     0
291
     1
 45
0.0
1001
ACAD
1000
AcDbSavedByObjectVersion
1070
     0
  0
VISUALSTYLE
  5
200
102
{ACAD_REACTORS
330
1F0
102
}
330
1F0
100
AcDbVisualStyle
  2
ColorChange
 70
    16
 71
     2
 72
     2
 73
     3
 90
        0
 40
-0.6
 41
-30.0
 62
     5
 63
     8
 74
     1
 91
        4
 64
     7
 65
   257
 75
     1
175
     1
 42
1.0
 92
        8
 66
     8
 43
1.0
 76
     1
 77
     6
 78
     2
 67
     7
 79
     5
170
     0
171
     0
290
     0
174
     0
 93
        1
 44
0.0
173
     0
291
     1
 45
0.0
1001
ACAD
1000
AcDbSavedByObjectVersion
1070
     0
  0
VISUALSTYLE
  5
1F9
102
{ACAD_REACTORS
330
1F0
102
}
330
1F0
100
AcDbVisualStyle
  2
Conceptual
 70
     9
 71
     3
 72
     2
 73
     0
 90
        0
 40
-0.6
 41
-30.0
 62
     5
 63
     7
 74
     2
 91
        2
 64
     7
 65
   257
 75
     1
175
     1
 42
40.0
 92
        8
 66
     7
 43
1.0
 76
     1
 77
     6
 78
     2
 67
     7
 79
     3
170
     0
171
     0
290
     0
174
     0
 93
        1
 44
0.0
173
     0
291
     0
 45
0.0
1001
ACAD
1000
AcDbSavedByObjectVersion
1070
     0
  0
VISUALSTYLE
  5
1FB
102
{ACAD_REACTORS
330
1F0
102
}
330
1F0
100
AcDbVisualStyle
  2
Dim
 70
    11
 71
     2
 72
     2
 73
     0
 90
        0
 40
-0.6
 41
-30.0
 62
     5
 63
     7
 74
     1
 91
        4
 64
     7
 65
   257
 75
     1
175
     1
 42
1.0
 92
        8
 66
     7
 43
1.0
 76
     1
 77
     6
 78
     2
 67
     7
 79
     5
170
     0
171
     0
290
     0
174
     0
 93
        1
 44
-50.0
173
     0
291
     1
 45
0.0
1001
ACAD
1000
AcDbSavedByObjectVersion
1070
     0
  0
VISUALSTYLE
  5
1FF
102
{ACAD_REACTORS
330
1F0
102
}
330
1F0
100
AcDbVisualStyle
  2
Facepattern
 70
    15
 71
     2
 72
     2
 73
     0
 90
        0
 40
-0.6
 41
-30.0
 62
     5
 63
     7
 74
     1
 91
        4
 64
     7
 65
   257
 75
     1
175
     1
 42
1.0
 92
        8
 66
     7
 43
1.0
 76
     1
 77
     6
 78
     2
 67
     7
 79
     5
170
     0
171
     0
290
     0
174
     0
 93
        1
 44
0.0
173
     0
291
     1
 45
0.0
1001
ACAD
1000
AcDbSavedByObjectVersion
1070
     0
  0
VISUALSTYLE
  5
1F1
102
{ACAD_REACTORS
330
1F0
102
}
330
1F0
100
AcDbVisualStyle
  2
Flat
 70
     0
 71
     2
 72
     1
 73
     1
 90
        2
 40
-0.6
 41
30.0
 62
     5
 63
     7
 74
     0
 91
        4
 64
     7
 65
   257
 75
     1
175
     1
 42
1.0
 92
        8
 66
     7
 43
1.0
 76
     1
 77
     6
 78
     2
 67
     7
 79
     5
170
     0
171
     0
290
     0
174
     0
 93
       13
 44
0.0
173
     0
291
     1
 45
0.0
1001
ACAD
1000
AcDbSavedByObjectVersion
1070
     0
  0
VISUALSTYLE
  5
1F2
102
{ACAD_REACTORS
330
1F0
102
}
330
1F0
100
AcDbVisualStyle
  2
FlatWithEdges
 70
     1
 71
     2
 72
     1
 73
     1
 90
        2
 40
-0.6
 41
30.0
 62
     5
 63
     7
 74
     1
 91
        4
 64
     7
 65
   257
 75
     1
175
     1
 42
1.0
 92
        0
 66
   257
 43
1.0
 76
     1
 77
     6
 78
     2
 67
     7
 79
     5
170
     0
171
     0
290
     0
174
     0
 93
       13
 44
0.0
173
     0
291
     1
 45
0.0
1001
ACAD
1000
AcDbSavedByObjectVersion
1070
     0
  0
VISUALSTYLE
  5
1F3
102
{ACAD_REACTORS
330
1F0
102
}
330
1F0
100
AcDbVisualStyle
  2
Gouraud
 70
     2
 71
     2
 72
     2
 73
     1
 90
        2
 40
-0.6
 41
30.0
 62
     5
 63
     7
 74
     0
 91
        4
 64
     7
 65
   257
 75
     1
175
     1
 42
1.0
 92
        0
 66
     7
 43
1.0
 76
     1
 77
     6
 78
     2
 67
     7
 79
     5
170
     0
171
     0
290
     0
174
     0
 93
       13
 44
0.0
173
     0
291
     1
 45
0.0
1001
ACAD
1000
AcDbSavedByObjectVersion
1070
     0
  0
VISUALSTYLE
  5
1F4
102
{ACAD_REACTORS
330
1F0
102
}
330
1F0
100
AcDbVisualStyle
  2
GouraudWithEdges
 70
     3
 71
     2
 72
     2
 73
     1
 90
        2
 40
-0.6
 41
30.0
 62
     5
 63
     7
 74
     1
 91
        4
 64
     7
 65
   257
 75
     1
175
     1
 42
1.0
 92
        0
 66
   257
 43
1.0
 76
     1
 77
     6
 78
     2
 67
     7
 79
     5
170
     0
171
     0
290
     0
174
     0
 93
       13
 44
0.0
173
     0
291
     1
 45
0.0
1001
ACAD
1000
AcDbSavedByObjectVersion
1070
     0
  0
VISUALSTYLE
  5
1FE
102
{ACAD_REACTORS
330
1F0
102
}
330
1F0
100
AcDbVisualStyle
  2
Linepattern
 70
    14
 71
     2
 72
     2
 73
     0
 90
        0
 40
-0.6
 41
-30.0
 62
     5
 63
     7
 74
     1
 91
        4
 64
     7
 65
   257
 75
     7
175
     7
 42
1.0
 92
        8
 66
     7
 43
1.0
 76
     1
 77
     6
 78
     2
 67
     7
 79
     5
170
     0
171
     0
290
     0
174
     0
 93
        1
 44
0.0
173
     0
291
     1
 45
0.0
1001
ACAD
1000
AcDbSavedByObjectVersion
1070
     0
  0
VISUALSTYLE
  5
1FA
102
{ACAD_REACTORS
330
1F0
102
}
330
1F0
100
AcDbVisualStyle
  2
Realistic
 70
     8
 71
     2
 72
     2
 73
     0
 90
        0
 40
-0.6
 41
-30.0
 62
     5
 63
     7
 74
     1
 91
        0
 64
     7
 65
   257
 75
     1
175
     1
 42
1.0
 92
        8
 66
     8
 43
1.0
 76
     1
 77
     6
 78
     2
 67
     7
 79
     5
170
     0
171
     0
290
     0
174
     0
 93
       13
 44
0.0
173
     0
291
     0
 45
0.0
1001
ACAD
1000
AcDbSavedByObjectVersion
1070
     0
  0
VISUALSTYLE
  5
1FD
102
{ACAD_REACTORS
330
1F0
102
}
330
1F0
100
AcDbVisualStyle
  2
Thicken
 70
    13
 71
     2
 72
     2
 73
     0
 90
        0
 40
-0.6
 41
-30.0
 62
     5
 63
     7
 74
     1
 91
        4
 64
     7
 65
   257
 75
     1
175
     1
 42
1.0
 92
       12
 66
     7
 43
1.0
 76
     1
 77
     6
 78
     2
 67
     7
 79
     5
170
     0
171
     0
290
     0
174
     0
 93
        1
 44
0.0
173
     0
291
     1
 45
0.0
1001
ACAD
1000
AcDbSavedByObjectVersion
1070
     0
  0
DICTIONARYVAR
  5
21E
102
{ACAD_REACTORS
330
21D
102
}
330
21D
100
DictionaryVariables
280
     0
  1
STANDARD
  0
DICTIONARYVAR
  5
221
102
{ACAD_REACTORS
330
21D
102
}
330
21D
100
DictionaryVariables
280
     0
  1
1
  0
DICTIONARYVAR
  5
220
102
{ACAD_REACTORS
330
21D
102
}
330
21D
100
DictionaryVariables
280
     0
  1
0
  0
DICTIONARYVAR
  5
21F
102
{ACAD_REACTORS
330
21D
102
}
330
21D
100
DictionaryVariables
280
     0
  1
127
  0
DICTIONARY
  5
18CF
330
22
100
AcDbDictionary
280
     1
281
     1
  3
ACAD_XREC_ROUNDTRIP
360
18D0
  0
DICTIONARY
  5
18CD
330
1E
100
AcDbDictionary
280
     1
281
     1
  3
ACAD_XREC_ROUNDTRIP
360
18CE
  0
DICTIONARY
  5
18D1
330
26
100
AcDbDictionary
280
     1
281
     1
  3
ACAD_XREC_ROUNDTRIP
360
18D2
  0
DICTIONARY
  5
18D5
330
1EE
100
AcDbDictionary
280
     1
281
     1
  3
ACAD_XREC_ROUNDTRIP
360
18D6
  0
DICTIONARY
  5
18D3
330
1ED
100
AcDbDictionary
280
     1
281
     1
  3
ACAD_XREC_ROUNDTRIP
360
18D4
  0
DICTIONARY
  5
18D7
330
1EF
100
AcDbDictionary
280
     1
281
     1
  3
ACAD_XREC_ROUNDTRIP
360
18D8
  0
DICTIONARY
  5
18D9
330
203
100
AcDbDictionary
280
     1
281
     1
  3
ACAD_XREC_ROUNDTRIP
360
18DA
  0
XRECORD
  5
18D0
102
{ACAD_REACTORS
330
18CF
102
}
330
18CF
100
AcDbXrecord
280
     1
102
SHADEPLOT
 70
     0
102
SHADEPLOTRESLEVEL
 70
     2
102
SHADEPLOTCUSTOMDPI
 70
   300
  0
XRECORD
  5
18CE
102
{ACAD_REACTORS
330
18CD
102
}
330
18CD
100
AcDbXrecord
280
     1
102
SHADEPLOT
 70
     0
102
SHADEPLOTRESLEVEL
 70
     2
102
SHADEPLOTCUSTOMDPI
 70
   300
  0
XRECORD
  5
18D2
102
{ACAD_REACTORS
330
18D1
102
}
330
18D1
100
AcDbXrecord
280
     1
102
SHADEPLOT
 70
     0
102
SHADEPLOTRESLEVEL
 70
     2
102
SHADEPLOTCUSTOMDPI
 70
   300
  0
XRECORD
  5
18D6
102
{ACAD_REACTORS
330
18D5
102
}
330
18D5
100
AcDbXrecord
280
     1
102
MATERIAL
148
0.0
149
0.0
149
0.0
 93
        0
 94
       63
282
     0
 72
     1
 77
     1
171
     1
175
     1
179
     1
273
     0
  0
XRECORD
  5
18D4
102
{ACAD_REACTORS
330
18D3
102
}
330
18D3
100
AcDbXrecord
280
     1
102
MATERIAL
148
0.0
149
0.0
149
0.0
 93
        0
 94
       63
282
     0
 72
     1
 77
     1
171
     1
175
     1
179
     1
273
     0
  0
XRECORD
  5
18D8
102
{ACAD_REACTORS
330
18D7
102
}
330
18D7
100
AcDbXrecord
280
     1
102
MATERIAL
148
0.0
149
0.0
149
0.0
 93
        0
 94
       63
282
     0
 72
     1
 77
     1
171
     1
175
     1
179
     1
273
     0
  0
XRECORD
  5
18DA
102
{ACAD_REACTORS
330
18D9
102
}
330
18D9
100
AcDbXrecord
280
     1
102
ACAD_ROUNDTRIP_PRE2007_TABLESTYLE
 90
      512
 91
        0
  1

 92
      512
 93
        0
  2

 94
      512
 95
        0
  3

  0
ENDSEC
  0
EOF
